Tom Clancy's Jack Ryan S01 1080p BluRay DD 5.1 X265-ZiTO

Torrent Details

Tom Clancy's Jack Ryan S01 1080p BluRay DD 5.1 x265-ZiTO

NAME
Tom Clancy's Jack Ryan S01 1080p BluRay DD 5.1 x265-ZiTO.torrent
CATEGORY
Television
INFOHASH
30154211830bc7eb98a2a70e05e3f55b7f968ccd
SIZE
4.6 GB in 8 files
ADDED
Uploaded on 20-01-2021 by our crawler pet called "Spidey".
SWARM
0 seeders & 1 peers
RATING
No votes yet.

Please login to vote for this torrent.


Description





Video

ID                          : 1

Format                      : HEVC

Format/Info                 : High Efficiency Video Coding

Format profile              : [email protected]@Main

Codec ID                    : V_MPEGH/ISO/HEVC

Duration                    : 1h 4mn

Bit rate                    : 1 384 Kbps

Width                       : 1 920 pixels

Height                      : 1 080 pixels

Display aspect ratio        : 16:9

Frame rate mode             : Constant

Frame rate                  : 23.976 (24000/1001) fps

Color space                 : YUV

Chroma subsampling          : 4:2:0

Bit depth                   : 8 bits

Bits/(Pixel*Frame)          : 0.028

Stream size                 : 643 MiB (84%)

Language                    : English

Default                     : Yes

Forced                      : No

Color range                 : Limited

Color primaries             : BT.709

Transfer characteristics    : BT.709

Matrix coefficients         : BT.709



Audio

ID                          : 2

Format                      : AC-3

Format/Info                 : Audio Coding 3

Mode extension              : CM (complete main)

Format settings, Endianness : Big

Codec ID                    : A_AC3

Duration                    : 1h 4mn

Bit rate mode               : Constant

Bit rate                    : 256 Kbps

Channel(s)                  : 6 channels

Channel positions           : Front: L C R, Side: L R, LFE

Sampling rate               : 48.0 KHz

Frame rate                  : 31.250 fps (1536 spf)

Compression mode            : Lossy

Stream size                 : 119 MiB (16%)

Language                    : English

Default                     : Yes

Forced                      : No



















Discussion

Comments 0

Post Your Comment

Files in this torrent

FILENAMESIZE
Tom.Clancys.Jack.Ryan.S01E01.Pilot.BluRay.DD5.1.x265-ZiTO.mkv762.8 MB
Tom.Clancys.Jack.Ryan.S01E02.French.Connection.1080p.BluRay.DD5.1.x265-ZiTO.mkv532.9 MB
Tom.Clancys.Jack.Ryan.S01E03.Black.22.1080p.BluRay.DD5.1.x265-ZiTO.mkv598.2 MB
Tom.Clancys.Jack.Ryan.S01E04.The.Wolf.1080p.BluRay.DD5.1.x265-ZiTO.mkv527.7 MB
Tom.Clancys.Jack.Ryan.S01E05.End.of.Honor.1080p.BluRay.DD5.1.x265-ZiTO.mkv572.7 MB
Tom.Clancys.Jack.Ryan.S01E06.Sources.and.Methods.1080p.BluRay.DD5.1.x265-ZiTO.mkv652.5 MB
Tom.Clancys.Jack.Ryan.S01E07.The.Boy.1080p.BluRay.DD5.1.x265-ZiTO.mkv553.5 MB
Tom.Clancys.Jack.Ryan.S01E08.Inshallah.1080p.BluRay.DD5.1.x265-ZiTO.mkv492.5 MB

Alternative Torrents for 'Tom Clancys Jack Ryan BluRay DD ZiTO'.

There are no alternative torrents found.