In The Tall Grass 2019 SDR WEB-DL 2160p W

Torrent Details

In the Tall Grass<span style=color:#777> 2019</span> SDR WEB-DL 2160p W

NAME
In the Tall Grass 2019 SDR WEB-DL 2160p W.torrent
CATEGORY
Movies
INFOHASH
8f05edaacbd3185bed1a49a245fda4c4747e3d96
SIZE
9.1 GB in 1 file
ADDED
Uploaded on 28-01-2021 by our crawler pet called "Spidey".
SWARM
0 seeders & 1 peers
RATING
No votes yet.

Please login to vote for this torrent.


Description

Информация о фильме

Название: В высокой траве

Оригинальное название: In the Tall Grass

Год выхода: 2019

Жанр: ужасы, триллер, фэнтези

Режиссер: Винченцо Натали

В ролях: Лайсла Де Оливейра, Эйвери Уиттед, Патрик Уилсон, Уилл Бьюи мл., Харрисон Гилбертсон, Тиффани Хельм, Рэйчел Уилсон



О фильме:

Кэл с беременной сестрой Бэкки направляются на машине в Сан-Диего, где девушка сможет отдать ребёнка на усыновление. Остановившись из-за тошноты Бэкки на обочине рядом с заросшим полем, ребята слышат крики о помощи — мальчик заблудился в высокой траве и не может выбраться. Без особых раздумий оба отравляются спасать малыша, не догадываясь, что найти дорогу назад будет очень непросто.







Страна: Канада

Студия: Copper Heart Entertainment, NetFlix

Продолжительность: 01:41:54

Перевод: Профессиональный (многоголосый, закадровый) | HDrezka Studio -ненормативная лексика



Файл

Качество: WEB-DL-HEVC 2160p | 4K | SDR | HDrezka Studio

Видео: HEVC/H.265, 3840x2160, ~11,6 Мbps, 24 fps

Звук:

Аудио 1: AC3, 6 ch, 448 Kbps - Русский

Аудио 2: E-AC3, 6 ch, 768 Kbps - Английский

Субтитры: Русский (Форс., Полные), Английский (Full, SDH)



MediainfoОбщее

Уникальный идентификатор : 225495352091875037291946141269937692207 (0xA9A4D3393071D805A8C827A314C51E2F)

Полное имя : In the Tall Grass.2019.SDR.WEB-DL.2160p.W.mkv

Формат : Matroska

Версия формата : Version 4

Размер файла : 9,10 Гбайт

Продолжительность : 1 ч. 41 м.

Общий поток : 12,8 Мбит/сек

Название фильма : In the Tall Grass.2019.SDR.WEB-DL.2160p.W

Дата кодирования : UTC 2021-01-28 18:38:05

Программа кодирования : mkvmerge v23.0.0 ('The Bride Said No') 64-bit

Библиотека кодирования : libebml v1.3.6 + libmatroska v1.4.9



Видео

Идентификатор : 1

Формат : HEVC

Формат/Информация : High Efficiency Video Coding

Профиль формата : Main 10@L5@Main

Идентификатор кодека : V_MPEGH/ISO/HEVC

Продолжительность : 1 ч. 41 м.

Битрейт : 11,6 Мбит/сек

Ширина : 3 840 пикселей

Высота : 2 160 пикселей

Соотношение сторон : 16:9

Режим частоты кадров : Постоянный

Частота кадров : 24,000 кадра/сек

Цветовое пространство : YUV

Субдискретизация насыщенности : 4:2:0

Битовая глубина : 10 бит

Бит/(Пиксели*Кадры) : 0.058

Размер потока : 8,23 Гбайт (90%)

Язык : English

Default : Да

Forced : Нет

Цветовой диапазон : Limited

Основные цвета : BT.709

Характеристики трансфера : BT.709

Коэффициенты матрицы : BT.709



Аудио #1

Идентификатор : 2

Формат : AC-3

Формат/Информация : Audio Coding 3

Коммерческое название : Dolby Digital

Идентификатор кодека : A_AC3

Продолжительность : 1 ч. 41 м.

Вид битрейта : Постоянный

Битрейт : 448 Кбит/сек

Каналы : 6 каналов

Channel layout : L R C LFE Ls Rs

Частота : 48,0 КГц

Частота кадров : 31,250 кадров/сек (1536 SPF)

Метод сжатия : С потерями

Размер потока : 327 Мбайт (4%)

Заголовок : MVO | HDRezka Studio

Язык : Russian

Service kind : Complete Main

Default : Да

Forced : Нет



Аудио #2

Идентификатор : 3

Формат : E-AC-3 JOC

Формат/Информация : Enhanced AC-3 with Joint Object Coding

Коммерческое название : Dolby Digital Plus with Dolby Atmos

Идентификатор кодека : A_EAC3

Продолжительность : 1 ч. 41 м.

Вид битрейта : Постоянный

Битрейт : 768 Кбит/сек

Каналы : 6 каналов

Channel layout : L R C LFE Ls Rs

Частота : 48,0 КГц

Частота кадров : 31,250 кадров/сек (1536 SPF)

Метод сжатия : С потерями

Размер потока : 560 Мбайт (6%)

Заголовок : DDP 5.1

Язык : English

Service kind : Complete Main

Default : Нет

Forced : Нет

Complexity index : 16

Number of dynamic objects : 15

Bed channel count : 1 канал

Bed channel configuration : LFE



Текст #1

Идентификатор : 4

Формат : UTF-8

Идентификатор кодека : S_TEXT/UTF8

Идентификатор кодека/Информация : UTF-8 Plain Text

Продолжительность : 13 м. 15 с.

Битрейт : 1 бит/сек

Count of elements : 6

Размер потока : 198 байт (0%)

Заголовок : Forced

Язык : Russian

Default : Да

Forced : Нет



Текст #2

Идентификатор : 5

Формат : UTF-8

Идентификатор кодека : S_TEXT/UTF8

Идентификатор кодека/Информация : UTF-8 Plain Text

Продолжительность : 1 ч. 39 м.

Битрейт : 55 бит/сек

Count of elements : 929

Размер потока : 40,3 Кбайт (0%)

Заголовок : Full

Язык : Russian

Default : Нет

Forced : Нет



Текст #3

Идентификатор : 6

Формат : UTF-8

Идентификатор кодека : S_TEXT/UTF8

Идентификатор кодека/Информация : UTF-8 Plain Text

Продолжительность : 1 ч. 37 м.

Битрейт : 42 бит/сек

Count of elements : 1258

Размер потока : 30,5 Кбайт (0%)

Заголовок : Full

Язык : English

Default : Нет

Forced : Нет



Текст #4

Идентификатор : 7

Формат : UTF-8

Идентификатор кодека : S_TEXT/UTF8

Идентификатор кодека/Информация : UTF-8 Plain Text

Продолжительность : 1 ч. 38 м.

Битрейт : 49 бит/сек

Count of elements : 1501

Размер потока : 35,9 Кбайт (0%)

Заголовок : SDH

Язык : English

Default : Нет

Forced : Нет

Скриншоты

Discussion

Comments 0

Post Your Comment

Files in this torrent

FILENAMESIZE
In the Tall Grass.2019.SDR.WEB-DL.2160p.W.mkv9.1 GB

Alternative Torrents for 'Tall Grass SDR'.

There are no alternative torrents found.