20 000 Leagues Under The Sea 1954 DVDRip X264 AC3-PsiX

Torrent Details


20 000 Leagues Under the Sea 1954 DVDRip x264 AC3-PsiX

NAME
20 000 Leagues Under the Sea 1954 DVDRip x264 AC3-PsiX.torrent
CATEGORY
Movies
INFOHASH
71963c4ca434947261df89a95c7dcd29f1720e8d
SIZE
1.5 GB in 3 files
ADDED
Uploaded on 02-01-2015 by our crawler pet called "Spidey".
SWARM
0 seeders & 0 peers
RATING
No votes yet.

Please login to vote for this torrent.


Description

[email protected] /* */
Format settings, CABAC : Yes
Format settings, ReFrames : 4 frames
Codec ID : V_MPEG4/ISO/AVC
Duration : 2h 1mn
Bit rate : 1 258 Kbps
Width : 720 pixels
Height : 304 pixels
Display aspect ratio : 2.35:1
Frame rate mode : Constant
Frame rate : 25.000 fps
Color space : YUV
Chroma subsampling : 4:2:0
Bit depth : 8 bits
Scan type : Progressive
Bits/(Pixel*Frame) : 0.230
Stream size : 1.04 GiB (72%)
Writing library : x264 core 125 r2200 999b753
Encoding settings : cabac=1 / ref=4 / deblock=1:0:0 / analyse=0x3:0x133 / me=hex / subme=7 / psy=1 / psy_rd=1.00:0.00 /
mixed_ref=1 / me_range=16 / chroma_me=1 / trellis=1 / 8x8dct=1 / cqm=0 / deadzone=21,11 / fast_pskip=0 / chroma_qp_offset=-2 /
threads=6 / lookahead_threads=1 / sliced_threads=0 / nr=0 / decimate=1 / interlaced=0 / bluray_compat=0 / constrained_intra=0 /
bframes=3 / b_pyramid=2 / b_adapt=2 / b_bias=0 / direct=3 / weightb=1 / open_gop=0 / weightp=2 / keyint=250 / keyint_min=25 /
scenecut=0 / intra_refresh=0 / rc_lookahead=40 / rc=2pass / mbtree=1 / bitrate=1258 / ratetol=1.0 / qcomp=0.60 / qpmin=0 / qpmax=69
/ qpstep=4 / cplxblur=20.0 / qblur=0.5 / ip_ratio=1.40 / aq=1:1.00
Language : English
Default : Yes
Forced : No

Audio
ID : 2
Format : AC-3
Format/Info : Audio Coding 3
Mode extension : CM (complete main)
Format settings, Endianness : Big
Codec ID : A_AC3
Duration : 2h 1mn
Bit rate mode : Constant
Bit rate : 448 Kbps
Channel(s) : 6 channels
Channel positions : Front: L C R, Side: L R, LFE
Sampling rate : 48.0 KHz
Bit depth : 16 bits
Compression mode : Lossy
Stream size : 390 MiB (26%)
Default : Yes
Forced : No

Menu
00:00:00.000 : en:Chapter 01
00:09:03.400 : en:Chapter 02
00:14:54.720 : en:Chapter 03
00:26:45.240 : en:Chapter 04
00:37:35.000 : en:Chapter 05
00:47:35.960 : en:Chapter 06
00:56:08.640 : en:Chapter 07
01:04:48.440 : en:Chapter 08
01:15:08.480 : en:Chapter 09
01:25:55.760 : en:Chapter 10
01:42:28.280 : en:Chapter 11
01:56:08.720 : en:Chapter 12
02:01:49.480 : en:Chapter 13



Source............: DVD9 [Thanks]
Sample............: Yes
Subs..............: No
Encoded...........: PsiX

Greetz.....: tomcat-12 | Blacksheep | FWOLF | CFR | REMALiA.

 

Discussion

Comments 0

Post Your Comment

Files in this torrent

FILENAMESIZE
20.000.Leagues.Under.the.Sea.1954.DVDRip.x264.AC3-PsiX.mkv1.5 GB
Cover.jpg1.1 MB
Sample.mkv27.6 MB

Alternative Torrents for 'Leagues Under Sea DVDRip PsiX'.

TORRENT NAMEADDEDSIZESEEDSPEERSHEALTH
1/2/20151.5 GB00
1/2/20151.5 GB00