Секс, ложь и видео (Sex, Lies, And Videotape) 1989 BDRip 1080p

Torrent Details

Секс, ложь и видео (Sex, Lies, and Videotape) 1989 BDRip 1080p

NAME
Секс, ложь и видео (Sex, Lies, and Videotape) 1989 BDRip 1080p.torrent
CATEGORY
Movies
INFOHASH
490f094faae48dd6e38c35a06efd3fe25d402fe0
SIZE
12.2 GB in 0 files
ADDED
Uploaded on 29-01-2021 by our crawler pet called "Spidey".
SWARM
0 seeders & 0 peers
RATING
No votes yet.

Please login to vote for this torrent.


Description

Название: Секс, ложь и видео

Оригинальное название: Sex, Lies, and Videotape

Год выхода: 1989

Страна: США

Студия: Outlaw Productions (I), Virgin

Продолжительность: 01:40:09

Жанр: драма



Режиссер: Стивен Содерберг

В ролях: Джеймс Спэйдер, Энди МакДауэлл, Питер Галлахер, Лора Сан Джакомо, Рон Вотер, Стивен Брилл, Александра Рут, Эрл Т. Тейлор, Дэвид Фойл, ...



Перевод: профессиональный (многоголосый, закадровый), профессиональный (двухголосый, закадровый), авторский (одноголосый, закадровый)



О фильме: Джон считал свою жизнь вполне благополучной. Он был на хорошем счету в своей юридической фирме, имел красавицу жену Энн и любовницу Синтию, которая приходилась Энн младшей сестрой. Эту идиллию напрочь разрушил приезд его университетского товарища Грэма, показавшегося Энн и Джону немного странным.

Оказавшись в баре с Энн, Грэм признался ей, что в настоящее время является импотентом. Навестив Грэма, Энн обнаружила у него серию видеокассет, каждая из которых называлась женским именем. Проявив настойчивость, Энн узнала, что каждая кассета содержит сексуальную исповедь женщины. А ещё она узнала, что так Грэм получает сексуальное удовлетворение…







Кодек: x264

Качество: BDRip 1080p

Видео: 1920x1036 , 14000 kbps, 23,976 fps

Аудио #1: AC-3, 2 ch, 256 kbps (Rus) - MVO Пифагор (Paramount Channel)

Аудио #2: AC-3, 2 ch, 192 kbps (Rus) - MVO Первый канал

Аудио #3: AC-3, 1 ch, 192 kbps (Rus) - MVO Формат А (ОРТ)

Аудио #4: AC-3, 6 ch, 448 kbps (Rus) - DVO DDV

Аудио #5: AC-3, 2 ch, 192 kbps (Rus) - DVO Ю

Аудио #6: AC-3, 2 ch, 192 kbps (Rus) - AVO Горчаков Василий Овидиевич

Аудио #7: AC-3, 6 ch, 448 kbps (Rus) - AVO Кузнецов Сергей

Аудио #8: DTS, Core 96/24, 6 ch, 1509 kbps (Eng)

Субтитры: русские, английские

Спасибо за исходник



MediaInfo

x264 [info]: frame I:694 Avg QP:21.02 size:207486

x264 [info]: frame P:16988 Avg QP:23.41 size:134123

x264 [info]: frame B:126391 Avg QP:25.63 size: 64045

x264 [info]: consecutive B-frames: 0.9% 0.2% 0.6% 2.9% 4.0% 17.8% 4.9% 1.8% 5.7% 13.6% 9.6% 5.2% 11.1% 18.5% 3.3%



Общее

Уникальный идентификатор : 198722170442586890324668916715617251953 (0x95807F74348631D5B5AA1CBADF7FF271)

Полное имя : Секс, ложь и видео (Sex, Lies, and Videotape) 1989 BDRip 1080p.mkv

Формат : Matroska

Версия формата : Version 2

Размер файла : 12,2 Гбайт

Продолжительность : 1 ч. 40 м.

Общий поток : 17,4 Мбит/сек

Дата кодирования : UTC 2021-01-28 10:29:59

Программа кодирования : mkvmerge v4.0.0 ('The Stars were mine') сборка от Jun 6 2010 16:18:42

Библиотека кодирования : libebml v1.0.0 + libmatroska v1.0.0



Видео

Идентификатор : 1

Формат : AVC

Формат/Информация : Advanced Video Codec

Профиль формата : [email protected]

Параметр CABAC формата : Да

Параметр ReFrames формата : 4 кадра

Идентификатор кодека : V_MPEG4/ISO/AVC

Продолжительность : 1 ч. 40 м.

Битрейт : 14,0 Мбит/сек

Ширина : 1920 пикселей

Высота : 1036 пикселей

Соотношение сторон : 1,85:1

Режим частоты кадров : Постоянный

Частота кадров : 23,976 (24000/1001) кадра/сек

Цветовое пространство : YUV

Субдискретизация насыщенности : 4:2:0

Битовая глубина : 8 бит

Тип развёртки : Прогрессивная

Бит/(Пиксели*Кадры) : 0.294

Размер потока : 9,56 Гбайт (78%)

Библиотека кодирования : x264 core 161 r3027 4121277

Настройки программы : cabac=1 / ref=4 / deblock=1:-1:-1 / analyse=0x3:0x133 / me=umh / subme=11 / psy=1 / psy_rd=1.00:0.00 / mixed_ref=1 / me_range=32 / chroma_me=1 / trellis=2 / 8x8dct=1 / cqm=0 / deadzone=21,11 / fast_pskip=0 / chroma_qp_offset=-2 / threads=12 / lookahead_threads=2 / sliced_threads=0 / nr=0 / decimate=0 / interlaced=0 / bluray_compat=0 / constrained_intra=0 / bframes=14 / b_pyramid=2 / b_adapt=2 / b_bias=0 / direct=3 / weightb=1 / open_gop=0 / weightp=2 / keyint=240 / keyint_min=23 / scenecut=40 / intra_refresh=0 / rc=2pass / mbtree=0 / bitrate=14000 / ratetol=1.0 / qcomp=0.60 / qpmin=0 / qpmax=69 / qpstep=4 / cplxblur=20.0 / qblur=0.5 / ip_ratio=1.40 / pb_ratio=1.30 / aq=3:0.80

Язык : English

Default : Нет

Forced : Нет



Аудио #1

Идентификатор : 2

Формат : AC-3

Формат/Информация : Audio Coding 3

Расширение режима : CM (complete main)

Параметр Endianness формата : Big

Идентификатор кодека : A_AC3

Продолжительность : 1 ч. 40 м.

Вид битрейта : Постоянный

Битрейт : 256 Кбит/сек

Каналы : 2 канала

Расположение каналов : Front: L R

Частота : 48,0 КГц

Частота кадров : 31,250 кадров/сек (1536 spf)

Метод сжатия : С потерями

Размер потока : 183 Мбайт (1%)

Заголовок : MVO Пифагор (Paramount Channel)

Язык : Russian

Default : Нет

Forced : Нет



Аудио #2

Идентификатор : 3

Формат : AC-3

Формат/Информация : Audio Coding 3

Расширение режима : CM (complete main)

Параметр Endianness формата : Big

Идентификатор кодека : A_AC3

Продолжительность : 1 ч. 40 м.

Вид битрейта : Постоянный

Битрейт : 192 Кбит/сек

Каналы : 2 канала

Расположение каналов : Front: L R

Частота : 48,0 КГц

Частота кадров : 31,250 кадров/сек (1536 spf)

Метод сжатия : С потерями

Размер потока : 138 Мбайт (1%)

Заголовок : MVO Первый канал

Язык : Russian

Default : Нет

Forced : Нет



Аудио #3

Идентификатор : 4

Формат : AC-3

Формат/Информация : Audio Coding 3

Расширение режима : CM (complete main)

Параметр Endianness формата : Big

Идентификатор кодека : A_AC3

Продолжительность : 1 ч. 40 м.

Вид битрейта : Постоянный

Битрейт : 192 Кбит/сек

Каналы : 1 канал

Расположение каналов : Front: C

Частота : 48,0 КГц

Частота кадров : 31,250 кадров/сек (1536 spf)

Метод сжатия : С потерями

Размер потока : 138 Мбайт (1%)

Заголовок : MVO Формат А (ОРТ)

Язык : Russian

Default : Нет

Forced : Нет



Аудио #4

Идентификатор : 5

Формат : AC-3

Формат/Информация : Audio Coding 3

Расширение режима : CM (complete main)

Параметр Endianness формата : Big

Идентификатор кодека : A_AC3

Продолжительность : 1 ч. 40 м.

Вид битрейта : Постоянный

Битрейт : 448 Кбит/сек

Каналы : 6 каналов

Расположение каналов : Front: L C R, Side: L R, LFE

Частота : 48,0 КГц

Частота кадров : 31,250 кадров/сек (1536 spf)

Метод сжатия : С потерями

Размер потока : 321 Мбайт (3%)

Заголовок : DVO DDV

Язык : Russian

Default : Нет

Forced : Нет



Аудио #5

Идентификатор : 6

Формат : AC-3

Формат/Информация : Audio Coding 3

Расширение режима : CM (complete main)

Параметр Endianness формата : Big

Идентификатор кодека : A_AC3

Продолжительность : 1 ч. 40 м.

Вид битрейта : Постоянный

Битрейт : 192 Кбит/сек

Каналы : 2 канала

Расположение каналов : Front: L R

Частота : 48,0 КГц

Частота кадров : 31,250 кадров/сек (1536 spf)

Метод сжатия : С потерями

Размер потока : 138 Мбайт (1%)

Заголовок : DVO Ю

Язык : Russian

Default : Нет

Forced : Нет



Аудио #6

Идентификатор : 7

Формат : AC-3

Формат/Информация : Audio Coding 3

Расширение режима : CM (complete main)

Параметр Endianness формата : Big

Идентификатор кодека : A_AC3

Продолжительность : 1 ч. 40 м.

Вид битрейта : Постоянный

Битрейт : 192 Кбит/сек

Каналы : 2 канала

Расположение каналов : Front: L R

Частота : 48,0 КГц

Частота кадров : 31,250 кадров/сек (1536 spf)

Метод сжатия : С потерями

Размер потока : 138 Мбайт (1%)

Заголовок : AVO Горчаков Василий Овидиевич

Язык : Russian

Default : Нет

Forced : Нет



Аудио #7

Идентификатор : 8

Формат : AC-3

Формат/Информация : Audio Coding 3

Расширение режима : CM (complete main)

Параметр Endianness формата : Big

Идентификатор кодека : A_AC3

Продолжительность : 1 ч. 40 м.

Вид битрейта : Постоянный

Битрейт : 448 Кбит/сек

Каналы : 6 каналов

Расположение каналов : Front: L C R, Side: L R, LFE

Частота : 48,0 КГц

Частота кадров : 31,250 кадров/сек (1536 spf)

Метод сжатия : С потерями

Размер потока : 321 Мбайт (3%)

Заголовок : AVO Кузнецов Сергей

Язык : Russian

Default : Нет

Forced : Нет



Аудио #8

Идентификатор : 9

Формат : DTS

Формат/Информация : Digital Theater Systems

Профиль формата : 96/24 / Core

Режим : 16

Параметр Endianness формата : Big

Идентификатор кодека : A_DTS

Продолжительность : 1 ч. 40 м.

Вид битрейта : Постоянный

Битрейт : 1509 Кбит/сек

Каналы : 6 каналов

Расположение каналов : Front: L C R, Side: L R, LFE

Частота : 96,0 КГц / 48,0 КГц

Частота кадров : 93,750 кадра/сек (512 spf)

Битовая глубина : 24 бит

Метод сжатия : С потерями

Размер потока : 1,06 Гбайт (9%)

Язык : English

Default : Нет

Forced : Нет



Текст #1

Идентификатор : 10

Формат : UTF-8

Идентификатор кодека : S_TEXT/UTF8

Идентификатор кодека/Информация : UTF-8 Plain Text

Язык : Russian

Default : Нет

Forced : Нет



Текст #2

Идентификатор : 11

Формат : UTF-8

Идентификатор кодека : S_TEXT/UTF8

Идентификатор кодека/Информация : UTF-8 Plain Text

Язык : English

Default : Нет

Forced : Нет



Текст #3

Идентификатор : 12

Формат : UTF-8

Идентификатор кодека : S_TEXT/UTF8

Идентификатор кодека/Информация : UTF-8 Plain Text

Заголовок : SDH

Язык : English

Default : Нет

Forced : Нет



Меню

00:00:00.000 : en:Ann at the therapist

00:05:28.912 : en:John and Cynthia

00:11:04.664 : en:Graham arrives

00:14:56.521 : en:Dinner

00:20:40.156 : en:John gives Cynthia a plant

00:22:50.452 : en:"Tell me something personal"

00:30:25.240 : en:Ann and Cynthia

00:34:04.960 : en:Ann goes over to Graham's

00:40:20.877 : en:Finding out what got Ann so spooked

00:49:59.747 : en:Cynthia's tape

00:54:01.655 : en:"Looks like a tablecloth"

00:57:02.669 : en:"Are you having an affair?"

01:06:39.746 : en:Ann finds the earring

01:09:12.023 : en:"Let's make a videotape"

01:17:07.331 : en:Ann's tape

01:34:05.431 : en:John back at work

01:37:38.269 : en:"It is raining" / End titles





Discussion

Comments 0

Post Your Comment

Torrent Files (Unavailable)

Please check back later to get a list of all files included in this torrent.

Alternative Torrents for 'Секс ложь и видео Sex Lies and Videotape'.

TORRENT NAMEADDEDSIZESEEDSPEERSHEALTH
1/29/202112.2 GB00