12 Rounds 3 Lockdown (2015) 720p Bluray Multi Audio [Hin + Eng + Tam + Tel] ESub X264 Shadow

Torrent Details


12 Rounds 3 Lockdown <span style=color:#777>(2015)</span> 720p Bluray Multi Audio [Hin + Eng + Tam + Tel] ESub x264 Shadow

NAME
12 Rounds 3 Lockdown (2015) 720p Bluray Multi Audio [Hin + Eng + Tam + Tel] ESub x264 Shadow.torrent
CATEGORY
Movies
INFOHASH
024c515ce253b07b4992a769ac7c4d1f27a1e10c
SIZE
974 MB in 1 file
ADDED
Uploaded on 01-02-2021 by our crawler pet called "Spidey".
SWARM
3 seeders & 1 peers
RATING
No votes yet.

Please login to vote for this torrent.


Description







General

Unique ID                                : 61579083212046388776305088791615187525 (0x2E53B33534926514E1230BA058CD2A45)

Complete name                            : 12.Rounds.3.Lockdown.2015.720p.Blu-Ray.Multi.Audio.Hin.Eng.Tam.Tel.ESub.x264.Shadow.mkv

Format                                   : Matroska

Format version                           : Version 4 / Version 2

File size                                : 974 MiB

Duration                                 : 1h 30mn

Overall bit rate                         : 1 511 Kbps

Movie name                               :  -=: 12 Rounds 3: Lockdown :=-  -: Released By : - Shadow

Encoded date                             : UTC 2021-02-01 10:05:59

Writing application                      : mkvmerge v43.0.0 ('The Quartermaster') 64-bit

Writing library                          : libebml v1.3.10 + libmatroska v1.5.2

Attachments                              : www.1TamilMV.us.png



Video

ID                                       : 1

Format                                   : AVC

Format/Info                              : Advanced Video Codec

Format profile                           : [email protected]

Format settings, CABAC                   : Yes

Format settings, ReFrames                : 4 frames

Codec ID                                 : V_MPEG4/ISO/AVC

Duration                                 : 1h 30mn

Bit rate                                 : 900 Kbps

Width                                    : 1 280 pixels

Height                                   : 720 pixels

Display aspect ratio                     : 16:9

Frame rate mode                          : Constant

Frame rate                               : 23.976 (24000/1001) fps

Color space                              : YUV

Chroma subsampling                       : 4:2:0

Bit depth                                : 8 bits

Scan type                                : Progressive

Bits/(Pixel*Frame)                       : 0.041

Stream size                              : 580 MiB (60%)

Title                                    : -=: 12 Rounds 3: Lockdown :=-  -: Released By : - Shadow

Writing library                          : x264 core 142 r2479 dd79a61

Encoding settings                        : cabac=1 / ref=4 / deblock=1:-1:-1 / analyse=0x3:0x133 / me=umh / subme=9 / psy=1 / psy_rd=1.00:0.15 / mixed_ref=1 / me_range=24 / chroma_me=1 / trellis=2 / 8x8dct=1 / cqm=0 / deadzone=21,11 / fast_pskip=0 / chroma_qp_offset=-3 / threads=12 / lookahead_threads=1 / sliced_threads=0 / nr=0 / decimate=1 / interlaced=0 / bluray_compat=0 / constrained_intra=0 / bframes=3 / b_pyramid=2 / b_adapt=2 / b_bias=0 / direct=3 / weightb=1 / open_gop=0 / weightp=2 / keyint=250 / keyint_min=23 / scenecut=40 / intra_refresh=0 / rc_lookahead=60 / rc=2pass / mbtree=1 / bitrate=900 / ratetol=1.0 / qcomp=0.60 / qpmin=0 / qpmax=69 / qpstep=4 / cplxblur=20.0 / qblur=0.5 / vbv_maxrate=31250 / vbv_bufsize=31250 / nal_hrd=none / filler=0 / ip_ratio=1.40 / aq=1:1.00

Language                                 : English

Default                                  : Yes

Forced                                   : No

Color range                              : Limited

Color primaries                          : BT.709

Transfer characteristics                 : BT.709

Matrix coefficients                      : BT.709



Audio #1

ID                                       : 2

Format                                   : MPEG Audio

Format version                           : Version 1

Format profile                           : Layer 3

Mode                                     : Joint stereo

Codec ID                                 : A_MPEG/L3

Codec ID/Hint                            : MP3

Duration                                 : 1h 30mn

Bit rate mode                            : Constant

Bit rate                                 : 128 Kbps

Channel(s)                               : 2 channels

Sampling rate                            : 48.0 KHz

Frame rate                               : 41.667 fps (1152 spf)

Compression mode                         : Lossy

Stream size                              : 82.5 MiB (8%)

Title                                    : -=: 12 Rounds 3: Lockdown :=-  -: Released By : - Shadow

Writing library                          : LAME3.98.2

Language                                 : Tamil

Default                                  : Yes

Forced                                   : No



Audio #2

ID                                       : 3

Format                                   : MPEG Audio

Format version                           : Version 1

Format profile                           : Layer 3

Mode                                     : Joint stereo

Codec ID                                 : A_MPEG/L3

Codec ID/Hint                            : MP3

Duration                                 : 1h 30mn

Bit rate mode                            : Constant

Bit rate                                 : 128 Kbps

Channel(s)                               : 2 channels

Sampling rate                            : 48.0 KHz

Frame rate                               : 41.667 fps (1152 spf)

Compression mode                         : Lossy

Stream size                              : 82.5 MiB (8%)

Title                                    : -=: 12 Rounds 3: Lockdown :=-  -: Released By : - Shadow

Writing library                          : LAME3.98.2

Language                                 : Telugu

Default                                  : No

Forced                                   : No



Audio #3

ID                                       : 4

Format                                   : MPEG Audio

Format version                           : Version 1

Format profile                           : Layer 3

Mode                                     : Joint stereo

Mode extension                           : MS Stereo

Codec ID                                 : A_MPEG/L3

Codec ID/Hint                            : MP3

Duration                                 : 1h 30mn

Bit rate mode                            : Constant

Bit rate                                 : 128 Kbps

Channel(s)                               : 2 channels

Sampling rate                            : 48.0 KHz

Frame rate                               : 41.667 fps (1152 spf)

Compression mode                         : Lossy

Stream size                              : 82.5 MiB (8%)

Title                                    : -=: 12 Rounds 3: Lockdown :=-  -: Released By : - Shadow

Writing library                          : LAME3.98.2

Language                                 : Hindi

Default                                  : No

Forced                                   : No



Audio #4

ID                                       : 5

Format                                   : AAC

Format/Info                              : Advanced Audio Codec

Format profile                           : LC

Codec ID                                 : A_AAC

Duration                                 : 1h 30mn

Bit rate                                 : 224 Kbps

Channel(s)                               : 6 channels

Channel positions                        : Front: L C R, Side: L R, LFE

Sampling rate                            : 48.0 KHz

Frame rate                               : 46.875 fps (1024 spf)

Compression mode                         : Lossy

Stream size                              : 144 MiB (15%)

Title                                    : -=: 12 Rounds 3: Lockdown :=-  -: Released By : - Shadow

Language                                 : English

Default                                  : No

Forced                                   : No



Text

ID                                       : 6

Format                                   : UTF-8

Codec ID                                 : S_TEXT/UTF8

Codec ID/Info                            : UTF-8 Plain Text

Duration                                 : 1h 21mn

Bit rate                                 : 36 bps

Count of elements                        : 790

Stream size                              : 22.1 KiB (0%)

Title                                    : -=: 12 Rounds 3: Lockdown :=-  -: Released By : - Shadow

Language                                 : English

Default                                  : Yes

Forced                                   : No













Discussion

Comments 0

Post Your Comment

Files in this torrent

FILENAMESIZE
12.Rounds.3.Lockdown.2015.720p.Blu-Ray.Multi.Audio.Hin.Eng.Tam.Tel.ESub.x264.Shadow.mkv974.2 MB

Alternative Torrents for 'Rounds Lockdown Bluray Multi Audio Hin Eng Tam Tel ESub Shadow'.

TORRENT NAMEADDEDSIZESEEDSPEERSHEALTH
2/1/2021974 MB31
2/1/20211.8 GB00