The Legend Of Korra S01 Season1 1080p BluRay ReEnc QAAC X264-xRed

Torrent Details

The Legend of Korra S01 Season1 1080p BluRay ReEnc QAAC x264-xRedThe Legend of Korra S01 Season1 1080p BluRay ReEnc QAAC x264-xRed

NAME
The Legend of Korra S01 Season1 1080p BluRay ReEnc QAAC x264-xRed.torrent
CATEGORY
Television
INFOHASH
c44dd4eab3c3c9d16a9cf72aedbc37650e8e923c
SIZE
3 GB in 26 files
ADDED
Uploaded on 03-02-2015 by our crawler pet called "Spidey".
SWARM
0 seeders & 0 peers
RATING
No votes yet.

Please login to vote for this torrent.


Description

Encoded by xRed @ www.xRedMedia.com

Ratings and Comments will be greatly appreciated!,
And as always,Seed as much as you can!

BitCoin @ 1EdjqFaZtSYVWhWRnYVvjP9qRsh7si1UB4

Encoding Information General : The.Legend.of.Korra.S01E01.1080p.BluRay.ReEnc.QAAC.x264-xRed Format : MPEG-4 at 1 794 Kbps Length : 309 MiB for 24mn 4s 75ms Video #0 : AVC at 1 547 Kbps Aspect : 1920 x 1080 (1.778) at 23.976 fps Audio #0 : AAC at 239 Kbps Infos : 6 channels, 48.0 KHz Language : en Format : MPEG-4 Format profile : Base Media Codec ID : isom File size : 309 MiB Duration : 24mn 4s Overall bit rate : 1 794 Kbps Writing application : Lavf56.9.100 Video ID : 1 Format : AVC Format/Info : Advanced Video Codec Format profile : [email protected] Format settings, CABAC : Yes Format settings, ReFrames : 4 frames Codec ID : avc1 Codec ID/Info : Advanced Video Coding Duration : 24mn 3s Bit rate : 1 547 Kbps Width : 1 920 pixels Height : 1 080 pixels Display aspect ratio : 16:9 Frame rate mode : Variable Frame rate : 23.976 fps Color space : YUV Chroma subsampling : 4:2:0 Bit depth : 8 bits Scan type : Progressive Bits/(Pixel*Frame) : 0.031 Stream size : 266 MiB (86%) Writing library : x264 core 142 r2409+42 04be48a tMod [[email protected]:2:0 X86_64] Encoding settings : cabac=1 / ref=4 / deblock=1:1:1 / analyse=0x3:0x113 / me=umh / subme=10 / psy=1 / fade_compensate=0.00 / psy_rd=0.60:0.10 / mixed_ref=1 / me_range=32 / chroma_me=1 / trellis=2 / 8x8dct=1 / cqm=0 / deadzone=21,11 / fast_pskip=1 / chroma_qp_offset=-3 / threads=12 / lookahead_threads=3 / sliced_threads=0 / nr=0 / decimate=1 / interlaced=0 / bluray_compat=0 / constrained_intra=0 / fgo=0 / bframes=12 / b_pyramid=2 / b_adapt=2 / b_bias=0 / direct=3 / weightb=1 / open_gop=0 / weightp=2 / keyint=250 / keyint_min=23 / scenecut=40 / intra_refresh=0 / rc_lookahead=60 / rc=crf / mbtree=1 / crf=23.0000 / qcomp=0.60 / qpmin=0:0:0 / qpmax=69:69:69 / qpstep=4 / ip_ratio=1.40 / aq=3:0.60 / aq-sensitivity=10.00 / aq-factor=1.00:1.00:1.00 / aq2=0 / aq3=0 Language : English Audio ID : 2 Format : AAC Format/Info : Advanced Audio Codec Format profile : LC Codec ID : 40 Duration : 24mn 4s Bit rate mode : Constant Bit rate : 239 Kbps Channel(s) : 2 channels Channel(s)_Original : 6 channels Channel positions : Front: L C R, Side: L R, LFE Sampling rate : 48.0 KHz Compression mode : Lossy Stream size : 41.2 MiB (13%) Language : English

Discussion

Comments 0

Post Your Comment

Files in this torrent

FILENAMESIZE
Add us on FaceBook!.txt396 B
SEED AS LONG AS YOU CAN!!!.txt396 B
The.Legend.of.Korra.S01E01.1080p.BluRay.ReEnc.QAAC.x264-xRed.mp4308.8 MB
The.Legend.of.Korra.S01E01.1080p.BluRay.ReEnc.QAAC.x264-xRed.srt47.1 KB
The.Legend.of.Korra.S01E02.1080p.BluRay.ReEnc.QAAC.x264-xRed.mp4301.9 MB
The.Legend.of.Korra.S01E02.1080p.BluRay.ReEnc.QAAC.x264-xRed.srt61 KB
The.Legend.of.Korra.S01E03.1080p.BluRay.ReEnc.QAAC.x264-xRed.mp4237.1 MB
The.Legend.of.Korra.S01E03.1080p.BluRay.ReEnc.QAAC.x264-xRed.srt44.2 KB
The.Legend.of.Korra.S01E04.1080p.BluRay.ReEnc.QAAC.x264-xRed.mp4213.4 MB
The.Legend.of.Korra.S01E04.1080p.BluRay.ReEnc.QAAC.x264-xRed.srt51.5 KB
The.Legend.of.Korra.S01E05.1080p.BluRay.ReEnc.QAAC.x264-xRed.mp4290.2 MB
The.Legend.of.Korra.S01E05.1080p.BluRay.ReEnc.QAAC.x264-xRed.srt62.4 KB
The.Legend.of.Korra.S01E06.1080p.BluRay.ReEnc.QAAC.x264-xRed.mp4276.1 MB
The.Legend.of.Korra.S01E06.1080p.BluRay.ReEnc.QAAC.x264-xRed.srt49.1 KB
The.Legend.of.Korra.S01E07.1080p.BluRay.ReEnc.QAAC.x264-xRed.mp4239.3 MB
The.Legend.of.Korra.S01E07.1080p.BluRay.ReEnc.QAAC.x264-xRed.srt45.9 KB
The.Legend.of.Korra.S01E08.1080p.BluRay.ReEnc.QAAC.x264-xRed.mp4234.2 MB
The.Legend.of.Korra.S01E08.1080p.BluRay.ReEnc.QAAC.x264-xRed.srt48.1 KB
The.Legend.of.Korra.S01E09.1080p.BluRay.ReEnc.QAAC.x264-xRed.mp4243.5 MB
The.Legend.of.Korra.S01E09.1080p.BluRay.ReEnc.QAAC.x264-xRed.srt38.6 KB
The.Legend.of.Korra.S01E10.1080p.BluRay.ReEnc.QAAC.x264-xRed.mp4244.3 MB
The.Legend.of.Korra.S01E10.1080p.BluRay.ReEnc.QAAC.x264-xRed.srt33.9 KB
The.Legend.of.Korra.S01E11.1080p.BluRay.ReEnc.QAAC.x264-xRed.mp4251.2 MB
The.Legend.of.Korra.S01E11.1080p.BluRay.ReEnc.QAAC.x264-xRed.srt43.1 KB
The.Legend.of.Korra.S01E12.1080p.BluRay.ReEnc.QAAC.x264-xRed.mp4256.8 MB
The.Legend.of.Korra.S01E12.1080p.BluRay.ReEnc.QAAC.x264-xRed.srt24.5 KB

Alternative Torrents for 'Legend of Korra Season BluRay ReEnc QAAC xRed'.

There are no alternative torrents found.