Guns Akimbo (2019) 1080p BluRay X264 ESub By~Hammer~

Torrent Details


Guns Akimbo (2019) 1080p BluRay x264   ESub By~Hammer~

NAME
Guns Akimbo (2019) 1080p BluRay x264 ESub By~Hammer~.torrent
CATEGORY
Movies
INFOHASH
587fc3141447966a5908bfc04dfa9db077859d01
SIZE
4.3 GB in 1 file
ADDED
Uploaded on 09-02-2021 by our crawler pet called "Spidey".
SWARM
2 seeders & 2 peers
RATING
No votes yet.

Please login to vote for this torrent.


Description

Guns Akimbo (2019) 1080p BluRay x264 {Dual Audio} {Hindi DD 5.1-English BD 5.1} ESub By~Hammer~






[b]General
Format : Matroska
Format version : Version 4
File size : 4.28 GiB
Duration : 1 h 37 min
Overall bit rate : 6 270 kb/s
Movie name : Guns Akimbo (2019) 1080p BluRay x264 {Dual Audio} {Hindi DD 5.1-English BD 5.1} ESub By~Hammer~
Bit rate : 5 000 kb/s
Width : 1 920 pixels
Height : 804 pixels
Display aspect ratio : 2.40:1
Frame rate mode : Constant
Frame rate : 23.976 (24000/1001) FPS
Title : ~EncodeR~HammeR~
Language : English
Default : Yes
Forced : Yes

Audio #1
Format : AC-3
Format/Info : Audio Coding 3
Commercial name : Dolby Digital
Codec ID : A_AC3
Duration : 1 h 37 min
Bit rate mode : Constant
Bit rate : 640 kb/s
Channel(s) : 6 channels
Channel layout : L R C LFE Ls Rs
Sampling rate : 48.0 kHz
Frame rate : 31.250 FPS (1536 SPF)
Compression mode : Lossy
Stream size : 446 MiB (10%)
Title : Hindi Org DD 5.1 640 kbps By~Hammer~
Language : Hindi
Default : Yes
Forced : Yes

Audio #2
Format : AC-3
Format/Info : Audio Coding 3
Commercial name : Dolby Digital
Codec ID : A_AC3
Duration : 1 h 37 min
Bit rate mode : Constant
Bit rate : 640 kb/s
Channel(s) : 6 channels
Channel layout : L R C LFE Ls Rs
Sampling rate : 48.0 kHz
Frame rate : 31.250 FPS (1536 SPF)
Compression mode : Lossy
Stream size : 448 MiB (10%)
Title : English BD 5.1 640 kbps By~Hammer~
Language : English
Default : No
Forced : No

Text
Format : UTF-8
Codec ID : S_TEXT/UTF8
Codec ID/Info : UTF-8 Plain Text
Duration : 1 h 29 min
Bit rate : 58 b/s
Count of elements : 1247
Stream size : 38.5 KiB (0%)
Title : English SRT
Language : English
Default : No
Forced : No











Discussion

Comments 0

Post Your Comment

Files in this torrent

FILENAMESIZE
Guns Akimbo (2019) 1080p BluRay x264 {Dual Audio} {Hindi DD 5.1-English BD 5.1} ESub By~Hammer~.mkv4.3 GB

Alternative Torrents for 'Guns Akimbo BluRay ESub ByHammer'.

There are no alternative torrents found.