Condor (2018) Season 2 S02 (1080p AMZN WEB-DL X265 HEVC 10bit DDP 5.1 Vyndros)

Torrent Details

Condor (2018) Season 2 S02 (1080p AMZN WEB-DL x265 HEVC 10bit DDP 5.1 Vyndros)

NAME
Condor (2018) Season 2 S02 (1080p AMZN WEB-DL x265 HEVC 10bit DDP 5.1 Vyndros).torrent
CATEGORY
Television
INFOHASH
3815aa079a885eef631060e3343577bd5e2911e7
SIZE
10.4 GB in 20 files
ADDED
Uploaded on 16-02-2021 by our crawler pet called "Spidey".
SWARM
0 seeders & 0 peers
RATING
No votes yet.

Please login to vote for this torrent.


Description





























Media Information



General

Format                                   : Matroska

Format version                           : Version 4 / Version 2

File size                                : 1 015 MiB

Duration                                 : 48 min 46 s

Overall bit rate                         : 2 909 kb/s

Encoded date                             : UTC 2021-02-09 03:46:39

Writing application                      : mkvmerge v53.0.0 ('Fool's Gold') 64-bit

Writing library                          : libebml v1.4.1 + libmatroska v1.6.2

Writing frontend                         : StaxRip v1.7.0.6



Video

ID                                       : 1

Format                                   : HEVC

Format/Info                              : High Efficiency Video Coding

Format profile                           : Main [email protected]@Main

Codec ID                                 : V_MPEGH/ISO/HEVC

Duration                                 : 48 min 46 s

Bit rate                                 : 2 267 kb/s

Width                                    : 1 920 pixels

Height                                   : 960 pixels

Display aspect ratio                     : 2.000

Frame rate mode                          : Constant

Frame rate                               : 23.976 (24000/1001) FPS

Color space                              : YUV

Chroma subsampling                       : 4:2:0

Bit depth                                : 10 bits

Bits/(Pixel*Frame)                       : 0.051

Stream size                              : 791 MiB (78%)

Writing library                          : x265 3.4+12-g9103319fc:[Windows][MSVC 1927][64 bit] 10bit

Encoding settings                        : cpuid=1111039 / frame-threads=3 / numa-pools=12 / wpp / no-pmode / no-pme / no-psnr / ssim / log-level=2 / input-csp=1 / input-res=1920x960 / interlace=0 / total-frames=70161 / level-idc=0 / high-tier=1 / uhd-bd=0 / ref=3 / no-allow-non-conformance / no-repeat-headers / annexb / no-aud / no-hrd / info / hash=0 / no-temporal-layers / open-gop / min-keyint=23 / keyint=250 / gop-lookahead=0 / bframes=8 / b-adapt=2 / b-pyramid / bframe-bias=0 / rc-lookahead=80 / lookahead-slices=6 / scenecut=40 / hist-scenecut=0 / radl=0 / no-splice / no-intra-refresh / ctu=64 / min-cu-size=8 / no-rect / no-amp / max-tu-size=32 / tu-inter-depth=1 / tu-intra-depth=1 / limit-tu=0 / rdoq-level=0 / dynamic-rd=0.00 / no-ssim-rd / signhide / no-tskip / nr-intra=0 / nr-inter=0 / no-constrained-intra / no-strong-intra-smoothing / max-merge=5 / limit-refs=1 / no-limit-modes / me=3 / subme=5 / merange=57 / temporal-mvp / no-frame-dup / no-hme / weightp / no-weightb / no-analyze-src-pics / deblock=0:0 / sao / no-sao-non-deblock / rd=3 / selective-sao=4 / early-skip / no-rskip / no-fast-intra / no-tskip-fast / no-cu-lossless / b-intra / no-splitrd-skip / rdpenalty=0 / psy-rd=2.00 / psy-rdoq=0.00 / no-rd-refine / no-lossless / cbqpoffs=0 / crqpoffs=0 / rc=crf / crf=19.0 / qcomp=0.60 / qpstep=4 / stats-write=0 / stats-read=0 / ipratio=1.40 / pbratio=1.30 / aq-mode=3 / aq-strength=1.00 / cutree / zone-count=0 / no-strict-cbr / qg-size=32 / no-rc-grain / qpmax=69 / qpmin=0 / no-const-vbv / sar=0 / overscan=0 / videoformat=5 / range=0 / colorprim=2 / transfer=2 / colormatrix=2 / chromaloc=0 / display-window=0 / cll=0,0 / min-luma=0 / max-luma=1023 / log2-max-poc-lsb=8 / vui-timing-info / vui-hrd-info / slices=1 / no-opt-qp-pps / no-opt-ref-list-length-pps / no-multi-pass-opt-rps / scenecut-bias=0.05 / hist-threshold=0.01 / no-opt-cu-delta-qp / no-aq-motion / no-hdr10 / no-hdr10-opt / no-dhdr10-opt / no-idr-recovery-sei / analysis-reuse-level=0 / analysis-save-reuse-level=0 / analysis-load-reuse-level=0 / scale-factor=0 / refine-intra=0 / refine-inter=0 / refine-mv=1 / refine-ctu-distortion=0 / no-limit-sao / ctu-info=0 / no-lowpass-dct / refine-analysis-type=0 / copy-pic=1 / max-ausize-factor=1.0 / no-dynamic-refine / no-single-sei / no-hevc-aq / no-svt / no-field / qp-adaptation-range=1.00 / no-scenecut-aware-qpconformance-window-offsets / right=0 / bottom=0 / decoder-max-rate=0

Default                                  : Yes

Forced                                   : No



Audio

ID                                       : 2

Format                                   : E-AC-3

Format/Info                              : Enhanced Audio Coding 3

Format settings, Endianness              : Big

Codec ID                                 : A_EAC3

Duration                                 : 48 min 46 s

Bit rate mode                            : Constant

Bit rate                                 : 640 kb/s

Channel(s)                               : 6 channels

Channel positions                        : Front: L C R, Side: L R, LFE

Sampling rate                            : 48.0 kHz

Frame rate                               : 187.500 FPS (256 spf)

Compression mode                         : Lossy

Stream size                              : 223 MiB (22%)

Language                                 : English

Default                                  : No

Forced                                   : No



Subtitle

ID                                       : 3

Format                                   : UTF-8

Codec ID                                 : S_TEXT/UTF8

Codec ID/Info                            : UTF-8 Plain Text

Duration                                 : 48 min 23 s

Bit rate                                 : 55 b/s

Count of elements                        : 692

Stream size                              : 19.7 KiB (0%)

Language                                 : English

Default                                  : No

Forced                                   : No



Source Information

Amazon WEB-DL

Discussion

Comments 0

Post Your Comment

Files in this torrent

FILENAMESIZE
Condor.S02E01.Exile.Is.a.Dream.1080p.10bit.AMZN.WEB-DL.DDP5.1.HEVC-Vyndros.mkv1.1 GB
Condor.S02E01.Exile.Is.a.Dream.1080p.10bit.AMZN.WEB-DL.DDP5.1.HEVC-Vyndros.srt53.6 KB
Condor.S02E02.If.It.Serves.a.Greater.Good.1080p.10bit.AMZN.WEB-DL.DDP5.1.HEVC-Vyndros.mkv1 GB
Condor.S02E02.If.It.Serves.a.Greater.Good.1080p.10bit.AMZN.WEB-DL.DDP5.1.HEVC-Vyndros.srt51.3 KB
Condor.S02E03.A.Former.KGB.Man.1080p.10bit.AMZN.WEB-DL.DDP5.1.HEVC-Vyndros.mkv1.1 GB
Condor.S02E03.A.Former.KGB.Man.1080p.10bit.AMZN.WEB-DL.DDP5.1.HEVC-Vyndros.srt48.2 KB
Condor.S02E04.Not.What.He.Thinks.He.Is.1080p.10bit.AMZN.WEB-DL.DDP5.1.HEVC-Vyndros.mkv997.1 MB
Condor.S02E04.Not.What.He.Thinks.He.Is.1080p.10bit.AMZN.WEB-DL.DDP5.1.HEVC-Vyndros.srt32.3 KB
Condor.S02E05.Out.of.His.Exile.1080p.10bit.AMZN.WEB-DL.DDP5.1.HEVC-Vyndros.mkv1014.8 MB
Condor.S02E05.Out.of.His.Exile.1080p.10bit.AMZN.WEB-DL.DDP5.1.HEVC-Vyndros.srt46.6 KB
Condor.S02E06.An.Offer.of.Enrollment.1080p.10bit.AMZN.WEB-DL.DDP5.1.HEVC-Vyndros.mkv1 GB
Condor.S02E06.An.Offer.of.Enrollment.1080p.10bit.AMZN.WEB-DL.DDP5.1.HEVC-Vyndros.srt53.2 KB
Condor.S02E07.A.Perspective,.Not.the.Truth.1080p.10bit.AMZN.WEB-DL.DDP5.1.HEVC-Vyndros.mkv826.9 MB
Condor.S02E07.A.Perspective,.Not.the.Truth.1080p.10bit.AMZN.WEB-DL.DDP5.1.HEVC-Vyndros.srt40.7 KB
Condor.S02E08.The.Road.We.Take.1080p.10bit.AMZN.WEB-DL.DDP5.1.HEVC-Vyndros.mkv1.2 GB
Condor.S02E08.The.Road.We.Take.1080p.10bit.AMZN.WEB-DL.DDP5.1.HEVC-Vyndros.srt52.6 KB
Condor.S02E09.The.Greatest.Hazard.1080p.10bit.AMZN.WEB-DL.DDP5.1.HEVC-Vyndros.mkv947.9 MB
Condor.S02E09.The.Greatest.Hazard.1080p.10bit.AMZN.WEB-DL.DDP5.1.HEVC-Vyndros.srt53 KB
Condor.S02E10.Not.Necessarily.to.Lose.1080p.10bit.AMZN.WEB-DL.DDP5.1.HEVC-Vyndros.mkv1.2 GB
Condor.S02E10.Not.Necessarily.to.Lose.1080p.10bit.AMZN.WEB-DL.DDP5.1.HEVC-Vyndros.srt42.7 KB

Alternative Torrents for 'Condor Season HEVC bit DDP Vyndros'.

There are no alternative torrents found.