Bad Santa (2003) BDRip-HEVC 1080p 10 Bit (Director's Cut)

Torrent Details


Bad Santa (2003) BDRip-HEVC 1080p 10 bit (Director's Cut)

NAME
Bad Santa (2003) BDRip-HEVC 1080p 10 bit (Director's Cut).torrent
CATEGORY
Movies
INFOHASH
0d146de0bd26b54eea760c32f43ead51a7e75f8e
SIZE
6.7 GB in 1 file
ADDED
Uploaded on 16-02-2021 by our crawler pet called "Spidey".
SWARM
0 seeders & 0 peers
RATING
No votes yet.

Please login to vote for this torrent.


Description

Год выхода: 2003

Страна: США, Германия

Студия: Blixa Zweite Film Produktion GmbH & Co. KG, Columbia Pictures Corporation, Dimension Films, Triptych Pictures

Жанр: Драма, комедия, криминал

Продолжительность: 01:39:37

Перевод: Дублированный, авторские (одноголосые закадровые)



Режиссер: Терри Цвигофф

В ролях: Билли Боб Торнтон, Тони Кокс, Бретт Келли, Лорен Грэм, Лорен Том, Берни Мак, Джон Риттер, Аджай Найду, Лорна Скотт, Харрисон Бикер, Алекс Борштейн, Александра Корхан, Дилан Чарльз, Билли Гарделл, Лиза Росс, Брайан Коллен, Том МакГоуэн, Грэйс Калдерон, Кристин Пикардо, Баки Доминик, Джорджия Эскью, Хейден Бромберг, Макс Ван Вилле, Бриана Нортон, Октавия Спенсер, Халли Синглтон, Райан Пинкстон, Натсуко Охама, Дэйв Адамс, Итэн Филлипс, Джои Саравия, Коуди Штраух, Маршалл Дворин, Кертис Тейлор, Джон Баннелл



Описание: Два приятеля - алкаш-еврей, специалист по взлому сейфов, и негр-карлик, под Рождество устраиваются работать в универмаги: еврей трудится Санта Клаусом, а чёрный карлик - эльфом. Когда магазин запирают на Рождество, карлик прячется в здании, потом отключает сигнализацию, впускает товарища, тот взламывает сейф с рождественской выручкой, после чего они разбегаются и встречаются под следующее Рождество. Но на этот раз всё складывается не так, как надо: Санта Клаус пьёт сверх меры, постоянно посылая детей куда подальше, занимается в кабинке для переодевания анальным сексом с покупательницами, поселяется в доме у мальчишки, верящего в Санта Клауса и совершает массу гнусных поступков. А чёрному карлику никак не удаётся его вразумить. Тем временем начальник службы безопасности универмага просекает, с кем имеет дело. И тут начинается самое интересное...







Качество: BDRip-HEVC 1080p

Видео: HEVC/x.265, 1920x1040, ~7032 Kbps

Аудио 1: AC3, 6 ch, 640 Kbps - Русский, дублированный (R5)

Аудио 2: AC3, 6 ch, 640 Kbps - Русский, AVO (Д.Пучков)

Аудио 3: AC3, 6 ch, 640 Kbps - Русский, AVO (В.Котов)

Аудио 4: AC3, 6 ch, 640 Kbps - Английский

Субтитры: Русские







Mediainfo

x265 [info]: frame I: 1431, Avg QP:17.21 kb/s: 24727.86

x265 [info]: frame P: 29083, Avg QP:18.66 kb/s: 16846.68

x265 [info]: frame B: 112742, Avg QP:20.76 kb/s: 4275.15

x265 [info]: Weighted P-Frames: Y:6.0% UV:3.8%

x265 [info]: Weighted B-Frames: Y:3.5% UV:1.8%

x265 [info]: consecutive B-frames: 6.3% 1.9% 4.8% 43.0% 7.4% 26.8% 3.8% 5.7% 0.1% 0.1% 0.1%







General

Unique ID : 252427280094025387589803682814333578839 (0xBDE7B9CAD6D69C03E7A60DF08A646E57)

Complete name : G:HEVC-CLUBBad Santa (2003) BDRip-HEVC 1080p 10 bit (Director's Cut).mkv

Format : Matroska

Format version : Version 4

File size : 6.67 GiB

Duration : 1 h 39 min

Overall bit rate : 9 593 kb/s

Movie name : by HANNIBAL [HEVC-CLUB]

Encoded date : UTC 2021-02-16 15:58:50

Writing application : mkvmerge v47.0.0 ('Black Flag') 64-bit

Writing library : libebml v1.3.10 + libmatroska v1.5.2

Cover : Yes

Attachments : cover.jpg



Video

ID : 1

Format : HEVC

Format/Info : High Efficiency Video Coding

Format profile : Main [email protected]@High

Codec ID : V_MPEGH/ISO/HEVC

Duration : 1 h 39 min

Bit rate : 7 032 kb/s

Width : 1 920 pixels

Height : 1 040 pixels

Display aspect ratio : 1.85:1

Frame rate mode : Constant

Frame rate : 23.976 (23976/1000) FPS

Original frame rate : 23.976 (24000/1001) FPS

Color space : YUV

Chroma subsampling : 4:2:0

Bit depth : 10 bits

Bits/(Pixel*Frame) : 0.147

Stream size : 4.89 GiB (73%)

Writing library : x265 3.3+33-04275ae58030:[Windows][GCC 10.1.0][64 bit] 10bit

Encoding settings : cpuid=1111039 / frame-threads=3 / numa-pools=12 / wpp / no-pmode / no-pme / no-psnr / no-ssim / log-level=2 / input-csp=1 / input-res=1920x1040 / interlace=0 / total-frames=143256 / level-idc=41 / high-tier=1 / uhd-bd=0 / ref=5 / no-allow-non-conformance / no-repeat-headers / annexb / no-aud / no-hrd / info / hash=0 / no-temporal-layers / open-gop / min-keyint=23 / keyint=240 / gop-lookahead=0 / bframes=10 / b-adapt=2 / b-pyramid / bframe-bias=0 / rc-lookahead=60 / lookahead-slices=0 / scenecut=40 / hist-scenecut=0 / radl=0 / no-splice / no-intra-refresh / ctu=32 / min-cu-size=8 / rect / amp / max-tu-size=32 / tu-inter-depth=3 / tu-intra-depth=3 / limit-tu=0 / rdoq-level=2 / dynamic-rd=0.00 / no-ssim-rd / signhide / no-tskip / nr-intra=0 / nr-inter=0 / no-constrained-intra / strong-intra-smoothing / max-merge=5 / limit-refs=0 / no-limit-modes / me=3 / subme=7 / merange=57 / temporal-mvp / no-frame-dup / no-hme / weightp / weightb / no-analyze-src-pics / deblock=0:0 / no-sao / no-sao-non-deblock / rd=4 / selective-sao=0 / no-early-skip / rskip / no-fast-intra / no-tskip-fast / no-cu-lossless / b-intra / no-splitrd-skip / rdpenalty=0 / psy-rd=2.00 / psy-rdoq=1.00 / no-rd-refine / no-lossless / cbqpoffs=0 / crqpoffs=0 / rc=crf / crf=20.0 / qcomp=0.70 / qpstep=4 / stats-write=0 / stats-read=0 / vbv-maxrate=50000 / vbv-bufsize=50000 / vbv-init=0.9 / crf-max=0.0 / crf-min=0.0 / ipratio=1.40 / pbratio=1.30 / aq-mode=2 / aq-strength=1.00 / no-cutree / zone-count=0 / no-strict-cbr / qg-size=32 / no-rc-grain / qpmax=69 / qpmin=0 / no-const-vbv / sar=1 / overscan=0 / videoformat=5 / range=0 / colorprim=1 / transfer=1 / colormatrix=1 / chromaloc=0 / display-window=0 / cll=0,0 / min-luma=0 / max-luma=1023 / log2-max-poc-lsb=8 / vui-timing-info / vui-hrd-info / slices=1 / no-opt-qp-pps / no-opt-ref-list-length-pps / no-multi-pass-opt-rps / scenecut-bias=0.05 / hist-threshold=0.01 / no-opt-cu-delta-qp / no-aq-motion / no-hdr10 / no-hdr10-opt / no-dhdr10-opt / no-idr-recovery-sei / analysis-reuse-level=0 / analysis-save-reuse-level=0 / analysis-load-reuse-level=0 / scale-factor=0 / refine-intra=0 / refine-inter=0 / refine-mv=1 / refine-ctu-distortion=0 / no-limit-sao / ctu-info=0 / no-lowpass-dct / refine-analysis-type=0 / copy-pic=1 / max-ausize-factor=1.0 / no-dynamic-refine / no-single-sei / no-hevc-aq / no-svt / no-field / qp-adaptation-range=1.00 / no-scenecut-aware-qpconformance-window-offsets / right=0 / bottom=0 / decoder-max-rate=0

Default : Yes

Forced : No

Color range : Limited

Color primaries : BT.709

Transfer characteristics : BT.709

Matrix coefficients : BT.709



Audio #1

ID : 2

Format : AC-3

Format/Info : Audio Coding 3

Commercial name : Dolby Digital

Codec ID : A_AC3

Duration : 1 h 39 min

Bit rate mode : Constant

Bit rate : 640 kb/s

Channel(s) : 6 channels

Channel layout : L R C LFE Ls Rs

Sampling rate : 48.0 kHz

Frame rate : 31.250 FPS (1536 SPF)

Compression mode : Lossy

Stream size : 456 MiB (7%)

Title : dub

Language : Russian

Service kind : Complete Main

Default : Yes

Forced : No



Audio #2

ID : 3

Format : AC-3

Format/Info : Audio Coding 3

Commercial name : Dolby Digital

Codec ID : A_AC3

Duration : 1 h 39 min

Bit rate mode : Constant

Bit rate : 640 kb/s

Channel(s) : 6 channels

Channel layout : L R C LFE Ls Rs

Sampling rate : 48.0 kHz

Frame rate : 31.250 FPS (1536 SPF)

Compression mode : Lossy

Stream size : 456 MiB (7%)

Title : AC3 (Одноголосый) Д. Пучков

Language : Russian

Service kind : Complete Main

Default : No

Forced : No



Audio #3

ID : 4

Format : AC-3

Format/Info : Audio Coding 3

Commercial name : Dolby Digital

Codec ID : A_AC3

Duration : 1 h 39 min

Bit rate mode : Constant

Bit rate : 640 kb/s

Channel(s) : 6 channels

Channel layout : L R C LFE Ls Rs

Sampling rate : 48.0 kHz

Frame rate : 31.250 FPS (1536 SPF)

Compression mode : Lossy

Stream size : 456 MiB (7%)

Title : AC3 (Одноголосый) В. Котов

Language : Russian

Service kind : Complete Main

Default : No

Forced : No



Audio #4

ID : 5

Format : AC-3

Format/Info : Audio Coding 3

Commercial name : Dolby Digital

Codec ID : A_AC3

Duration : 1 h 39 min

Bit rate mode : Constant

Bit rate : 640 kb/s

Channel(s) : 6 channels

Channel layout : L R C LFE Ls Rs

Sampling rate : 48.0 kHz

Frame rate : 31.250 FPS (1536 SPF)

Compression mode : Lossy

Stream size : 456 MiB (7%)

Title : AC3 (Оригинал)

Language : English

Service kind : Complete Main

Default : No

Forced : No



Text

ID : 6

Format : UTF-8

Codec ID : S_TEXT/UTF8

Codec ID/Info : UTF-8 Plain Text

Duration : 1 h 33 min

Bit rate : 106 b/s

Count of elements : 1238

Stream size : 73.0 KiB (0%)

Title : rus

Language : Russian

Default : Yes

Скриншоты







Релиз от: HANNIBAL

Discussion

Comments 0

Post Your Comment

Files in this torrent

FILENAMESIZE
Bad Santa (2003) BDRip-HEVC 1080p 10 bit (Director's Cut).mkv6.7 GB

Alternative Torrents for 'Bad Santa HEVC bit Director&;s Cut'.

TORRENT NAMEADDEDSIZESEEDSPEERSHEALTH
2/16/20216.7 GB00