Supernova (2000) Ita Eng Sub Ita Eng MIRCrew

Torrent Details

Supernova <span style=color:#777>(2000)</span> ita eng sub ita eng<span style=color:#fc9c6d> MIRCrew</span>

NAME
Supernova (2000) ita eng sub ita eng MIRCrew.torrent
CATEGORY
Movies
INFOHASH
b765d5f240e5569174da46fd41dd52def347010f
SIZE
1.5 GB in 4 files
ADDED
Uploaded on 05-03-2015 by our crawler pet called "Spidey".
SWARM
0 seeders & 0 peers
RATING
No votes yet.

Please login to vote for this torrent.


Description

Supernova (2000).BRrip.XviD - Italian English.Ac3 - 5.1 - Sub Ita Eng.MIRCrew








Titolo originale Supernova
Paese di produzione USA
Anno 2000
Durata 87 min
Genere fantascienza
Regia Walter Hill
Soggetto William Malone, Daniel Chuba
Sceneggiatura David C. Wilson
Produttore Daniel Chuba, Jamie Dixon, James Robert Johnston, Ash R. Shah, Ralph S. Singleton
Fotografia Lloyd Ahern II
Montaggio Michael Schweiter, Melissa Kent
Musiche David Williams




James Spader: Nick Vanzant
Angela Bassett: Dr. Kaela Evers
Robert Forster: A.J. Marley
Lou Diamond Phillips: Yerzy Penalosa
Peter Facinelli: Troy Larsson / Karl Larsson
Robin Tunney: Danika Lund
Wilson Cruz: Benj Sotomejor


.

La Nightingale 229, un'astronave di tecnologia umana avanzatissima del ventunesimo secolo viene allertata da una chiamata di soccorso a oltre tremila anni luce di distanza: l'equipaggio, composto dal capitano e pilota AJ Markley (Robert Forster), il suo copilota Nick Vanzant (James Spader), l'ufficiale medico Keela Evers (Angela Bassett), il tecnico Yerzy Penalosa (Lou Diamond Phillips), il paramedico Danika Lund (Robin Tunney) ed il tecnico informatico Benjamin Sotomejor (Wilson Cruz) si preparano per la missione, effettuando un salto dimensionale nello spazio................



Supernova chronicles the search and rescue patrol of a medical ship in deep space in the early 22nd century and its six-member crew which includes a Captain and Pilot, a co-pilot, a medical.........
















[spoiler]
General
Complete name : Supernova (2000).ita.eng.sub.ita.eng.MIRCrewSupernova (2000).ita.eng.sub.ita.eng.MIRCrew.avi
Format : AVI
Format/Info : Audio Video Interleave
File size : 1.46 GiB
Duration : 1h 26mn
Overall bit rate : 2 413 Kbps
Movie name : MIRCrew by robbyrs
Writing application : VirtualDubMod 1.5.10.2 (build 2540/release)
Writing library : VirtualDubMod build 2540/release

Video
ID : 0
Format : MPEG-4 Visual
Format profile : [email protected]
Format settings, BVOP : No
Format settings, QPel : No
Format settings, GMC : No warppoints
Format settings, Matrix : Default (H.263)
Codec ID : XVID
Codec ID/Hint : XviD
Duration : 1h 26mn
Bit rate : 1 503 Kbps
Width : 720 pixels
Height : 304 pixels
Display aspect ratio : 2.35:1
Frame rate : 25.000 fps
Color space : YUV
Chroma subsampling : 4:2:0
Bit depth : 8 bits
Scan type : Progressive
Compression mode : Lossy
Bits/(Pixel*Frame) : 0.275
Stream size : 933 MiB (62%)
Writing library : XviD 64

Audio #1
ID : 1
Format : AC-3
Format/Info : Audio Coding 3
Mode extension : CM (complete main)
Codec ID : 2000
Duration : 1h 26mn
Bit rate mode : Constant
Bit rate : 448 Kbps
Channel(s) : 6 channels
Channel positions : Front: L C R, Side: L R, LFE
Sampling rate : 48.0 KHz
Bit depth : 16 bits
Compression mode : Lossy
Stream size : 278 MiB (19%)
Alignment : Split accross interleaves
Interleave, duration : 40 ms (1.00 video frame)
Interleave, preload duration : 500 ms

Audio #2
ID : 2
Format : AC-3
Format/Info : Audio Coding 3
Mode extension : CM (complete main)
Codec ID : 2000
Duration : 1h 26mn
Bit rate mode : Constant
Bit rate : 448 Kbps
Channel(s) : 6 channels
Channel positions : Front: L C R, Side: L R, LFE
Sampling rate : 48.0 KHz
Bit depth : 16 bits
Compression mode : Lossy
Stream size : 278 MiB (19%)
Alignment : Split accross interleaves
Interleave, duration : 40 ms (1.00 video frame)
Interleave, preload duration : 500 ms




[/spoiler]



&&e4t67uk  

Discussion

Comments 0

Post Your Comment

Files in this torrent

FILENAMESIZE
Supernova (2000).ita.eng.sub.ita.eng.MIRCrew.avi1.5 GB
Supernova (2000).ita.eng.sub.ita.eng.MIRCrew.eng.srt66.5 KB
Supernova (2000).ita.eng.sub.ita.eng.MIRCrew.ita.srt66.8 KB
Supernova (2000).ita.eng.sub.ita.eng.MIRCrew.srt141 B

Alternative Torrents for 'Supernova eng sub eng'.

TORRENT NAMEADDEDSIZESEEDSPEERSHEALTH
5/6/20161.3 GB00
3/5/20151.5 GB00