2010 The Year We Make Contact (1984)

Torrent Details


2010 The Year We Make Contact <span style=color:#777>(1984)</span>

NAME
2010 The Year We Make Contact (1984).torrent
CATEGORY
Movies
INFOHASH
016fec045ca1c656cd8af454229d3b33ab06657c
SIZE
8.6 GB in 1 file
ADDED
Uploaded on 22-02-2021 by our crawler pet called "Spidey".
SWARM
2 seeders & 0 peers
RATING
No votes yet.

Please login to vote for this torrent.


Description

Информация о фильме

Название: Космическая одиссея 2010

Оригинальное название: 2010: The Year We Make Contact

Год выхода: 1984

Жанр: Фантастика, триллер, детектив, приключения

Режиссер: Питер Хайамс

В ролях: Рой Шайдер, Хелен Миррен, Боб Бэлабан, Кир Дулли, Дуглас Рэйн, Мэдолин Смит-Осборн, Дэна Элкар, Толизин Джаффе, Мэри Джо Дешанель, Илья Баскин, Савелий Крамаров, Олег Рудник, Наташа Шнейдер, Владимир Скомаровский, Ян Тришка, Ларри Кэрролл, Херта Уэр, Шерил Картер, Роберт Лессер, Кэндис Берген, Делана Майклс



О фильме:

Действие разворачивается спустя девять лет после событий, описываемых в фильме Стэнли Кубрика «2001 год: Космическая одиссея». Совместными усилиями американо-советские космонавты выводят на орбиту экипаж корабля «Алексей Леонов». Цель экспедиции — определить причину провала исследовательской миссии шаттла «Дискавери». Достигнув Юпитера, зонд фиксирует неизвестную форму жизни под слоем непроходимого льда. При попытке сфотографировать объект аппарат уничтожает яркая вспышка света. Дабы понять, что случилось с предшественниками, космонавты вынуждены вновь запустить бортовой компьютер HAL-9000.



Страна: США

Студия: Metro-Goldwyn-Mayer (MGM)

Продолжительность: 01:55:55

Перевод: Двухголосый закадровый



Файл

Кодек: HEVC/X265

Качество: BDRip-HEVC 1080p

Видео: 1912x796, ~9567 Кбит/сек, 0.262 бит/(Пиксели*Кадры), 23,976 кадр/сек (23976/1000), 10 bit

Аудио 01: AC3, 2 ch, 384 Kbps - Русский DVO

Аудио 02: AC3, 6 ch, 640 Kbps - Английский (Оригинал)



Субтитры: Русские, английские







Лог (x265 info) + Mediainfox265 [info]: frame I: 1328, Avg QP:18.67 kb/s: 24597.12

x265 [info]: frame P: 31783, Avg QP:19.97 kb/s: 16271.63

x265 [info]: frame B: 133643, Avg QP:21.98 kb/s: 7822.72



General

Unique ID : 152882238725328451937205291691596947335 (0x73040C53BAAF65D54ADC398A61DD9F87)

Complete name : E:/Torrent/2010 The Year We Make Contact (1984).mkv

Format : Matroska

Format version : Version 4

File size : 8.58 GiB

Duration : 1 h 55 min

Overall bit rate : 10.6 Mb/s

Movie name : 2010: The Year We Make Contact (1984)

Encoded date : UTC 2021-02-20 05:23:43

Writing application : mkvmerge v53.0.0 ('Fool's Gold') 64-bit

Writing library : libebml v1.4.1 + libmatroska v1.6.2

Cover : Yes

Attachments : cover



Video

ID : 1

Format : HEVC

Format/Info : High Efficiency Video Coding

Format profile : Main [email protected]@High

Codec ID : V_MPEGH/ISO/HEVC

Duration : 1 h 55 min

Bit rate : 9 567 kb/s

Width : 1 912 pixels

Height : 796 pixels

Display aspect ratio : 2.40:1

Frame rate mode : Constant

Frame rate : 23.976 (23976/1000) FPS

Original frame rate : 23.976 (24000/1001) FPS

Color space : YUV

Chroma subsampling : 4:2:0

Bit depth : 10 bits

Bits/(Pixel*Frame) : 0.262

Stream size : 7.75 GiB (90%)

Writing library : x265 3.4+10-g25b2c0703:[Windows][MSVC 1927][64 bit] 10bit

Encoding settings : cpuid=1111039 / frame-threads=4 / numa-pools=16 / wpp / no-pmode / no-pme / no-psnr / no-ssim / log-level=2 / input-csp=1 / input-res=1912x796 / interlace=0 / total-frames=166754 / level-idc=41 / high-tier=1 / uhd-bd=0 / ref=5 / no-allow-non-conformance / no-repeat-headers / annexb / no-aud / no-hrd / info / hash=0 / no-temporal-layers / open-gop / min-keyint=23 / keyint=240 / gop-lookahead=0 / bframes=14 / b-adapt=2 / b-pyramid / bframe-bias=0 / rc-lookahead=60 / lookahead-slices=4 / scenecut=40 / hist-scenecut=0 / radl=0 / no-splice / no-intra-refresh / ctu=32 / min-cu-size=8 / rect / amp / max-tu-size=32 / tu-inter-depth=4 / tu-intra-depth=4 / limit-tu=1 / rdoq-level=2 / dynamic-rd=0.00 / no-ssim-rd / signhide / no-tskip / nr-intra=0 / nr-inter=0 / no-constrained-intra / no-strong-intra-smoothing / max-merge=4 / limit-refs=2 / limit-modes / me=3 / subme=7 / merange=57 / temporal-mvp / no-frame-dup / no-hme / weightp / weightb / no-analyze-src-pics / deblock=-3:-3 / no-sao / no-sao-non-deblock / rd=6 / selective-sao=0 / no-early-skip / no-rskip / no-fast-intra / no-tskip-fast / no-cu-lossless / no-b-intra / no-splitrd-skip / rdpenalty=0 / psy-rd=2.00 / psy-rdoq=1.00 / no-rd-refine / no-lossless / cbqpoffs=0 / crqpoffs=0 / rc=crf / crf=20.0 / qcomp=0.60 / qpstep=4 / stats-write=0 / stats-read=0 / vbv-maxrate=50000 / vbv-bufsize=50000 / vbv-init=0.9 / crf-max=0.0 / crf-min=0.0 / ipratio=1.40 / pbratio=1.30 / aq-mode=1 / aq-strength=0.90 / no-cutree / zone-count=0 / no-strict-cbr / qg-size=32 / no-rc-grain / qpmax=69 / qpmin=0 / no-const-vbv / sar=1 / overscan=0 / videoformat=5 / range=0 / colorprim=1 / transfer=1 / colormatrix=1 / chromaloc=0 / display-window=0 / cll=0,0 / min-luma=0 / max-luma=1023 / log2-max-poc-lsb=8 / vui-timing-info / vui-hrd-info / slices=1 / no-opt-qp-pps / no-opt-ref-list-length-pps / no-multi-pass-opt-rps / scenecut-bias=0.05 / hist-threshold=0.01 / no-opt-cu-delta-qp / no-aq-motion / no-hdr10 / no-hdr10-opt / no-dhdr10-opt / no-idr-recovery-sei / analysis-reuse-level=0 / analysis-save-reuse-level=0 / analysis-load-reuse-level=0 / scale-factor=0 / refine-intra=0 / refine-inter=0 / refine-mv=1 / refine-ctu-distortion=0 / no-limit-sao / ctu-info=0 / no-lowpass-dct / refine-analysis-type=0 / copy-pic=1 / max-ausize-factor=1.0 / no-dynamic-refine / no-single-sei / no-hevc-aq / no-svt / no-field / qp-adaptation-range=1.00 / no-scenecut-aware-qpconformance-window-offsets / right=0 / bottom=0 / decoder-max-rate=0

Default : Yes

Forced : No

Color range : Limited

Color primaries : BT.709

Transfer characteristics : BT.709

Matrix coefficients : BT.709



Audio #1

ID : 2

Format : AC-3

Format/Info : Audio Coding 3

Commercial name : Dolby Digital

Codec ID : A_AC3

Duration : 1 h 55 min

Bit rate mode : Constant

Bit rate : 384 kb/s

Channel(s) : 2 channels

Channel layout : L R

Sampling rate : 48.0 kHz

Frame rate : 31.250 FPS (1536 SPF)

Compression mode : Lossy

Stream size : 318 MiB (4%)

Title : DVO

Language : Russian

Service kind : Complete Main

Default : Yes

Forced : Yes



Audio #2

ID : 3

Format : AC-3

Format/Info : Audio Coding 3

Commercial name : Dolby Digital

Codec ID : A_AC3

Duration : 1 h 55 min

Bit rate mode : Constant

Bit rate : 640 kb/s

Channel(s) : 6 channels

Channel layout : L R C LFE Ls Rs

Sampling rate : 48.0 kHz

Frame rate : 31.250 FPS (1536 SPF)

Compression mode : Lossy

Stream size : 531 MiB (6%)

Language : English

Service kind : Complete Main

Default : No

Forced : No



Text #1

ID : 4

Format : UTF-8

Codec ID : S_TEXT/UTF8

Codec ID/Info : UTF-8 Plain Text

Duration : 1 h 51 min

Bit rate : 106 b/s

Count of elements : 1458

Stream size : 86.4 KiB (0%)

Language : Russian

Default : No

Forced : No



Text #2

ID : 5

Format : UTF-8

Codec ID : S_TEXT/UTF8

Codec ID/Info : UTF-8 Plain Text

Duration : 1 h 55 min

Bit rate : 64 b/s

Count of elements : 1355

Stream size : 54.4 KiB (0%)

Language : English

Default : No

Forced : No



Menu

00:00:00.000 : en:Глава 01

00:14:09.723 : en:Глава 02

00:31:32.056 : en:Глава 03

00:51:53.485 : en:Глава 04

01:11:16.230 : en:Глава 05

01:34:29.455 : en:Глава 06

01:55:54.989 : en:Глава 07 / en:Глава 08

Скриншоты



Релиз от: Mr. Fox

Discussion

Comments 0

Post Your Comment

Files in this torrent

FILENAMESIZE
2010 The Year We Make Contact (1984).mkv8.6 GB

Alternative Torrents for 'Year We Make Contact'.

TORRENT NAMEADDEDSIZESEEDSPEERSHEALTH
4/23/20183.8 GB140
11/16/20192.4 GB90
4/1/20201.8 GB34
10/4/20212.3 GB20
2/22/20218.6 GB20
6/16/20192.2 GB21
4/21/20202.6 GB10
6/16/20198.7 GB12
5/9/20192.2 GB11
8/26/2019314 MB03
6/20/20191.5 GB01
6/16/20191.4 GB01
5/26/20181.4 GB00
9/25/20163.6 GB00
9/14/20166.1 GB00