Silicon Valley S02E01 HDTV X264-ASAP[rarbg]

Torrent Details


Silicon Valley S02E01 HDTV x264-ASAP[rarbg]

NAME
Silicon Valley S02E01 HDTV x264-ASAP[rarbg].torrent
CATEGORY
Television
INFOHASH
ba7d231ac08ebd0ff37f0ae7080fae845706598b
SIZE
189 MB in 3 files
ADDED
Uploaded on 13-04-2015 by our crawler pet called "Spidey".
SWARM
0 seeders & 0 peers
RATING
No votes yet.

Please login to vote for this torrent.


Description

Screenshots:

oPi

Silicon Valley

Episode.......: S02E01
Release Date..: 2015-04-12
Release Size..: 189.27Mb
Play Time.....: 29:26
Resolution....: 720x404
Video Codec...: h264
Video Bitrate.: 761kbps
Audio Bitrate.: 2ch, 132kbps

asdx

aSCii by
oPi/sAc
20 11

[mediainfo]
Video
ID : 1
Format : AVC
Format/Info : Advanced Video Codec
Format profile : [email protected] /* */
Format settings, CABAC : Yes
Format settings, ReFrames : 5 frames
Codec ID : avc1
Codec ID/Info : Advanced Video Coding
Duration : 29mn 25s
Bit rate : 761 Kbps
Width : 720 pixels
Height : 404 pixels
Display aspect ratio : 16:9
Frame rate mode : Constant
Frame rate : 23.976 fps
Color space : YUV
Chroma subsampling : 4:2:0
Bit depth : 8 bits
Scan type : Progressive
Bits/(Pixel*Frame) : 0.109
Stream size : 160 MiB (85%)
Writing library : x264 core 146 r2538 121396c
Encoding settings : cabac=1 / ref=5 / deblock=1:0:0 / analyse=0x3:0x113 / me=umh / subme=8 / psy=1 / psy_rd=1.00:0.00 / mixed_ref=1 / me_range=16 / chroma_me=1 / trellis=1 / 8x8dct=1 / cqm=0 / deadzone=21,11 / fast_pskip=1 / chroma_qp_offset=-2 / threads=18 / lookahead_threads=3 / sliced_threads=0 / nr=0 / decimate=1 / interlaced=0 / bluray_compat=0 / constrained_intra=0 / bframes=3 / b_pyramid=2 / b_adapt=2 / b_bias=0 / direct=3 / weightb=1 / open_gop=0 / weightp=2 / keyint=250 / keyint_min=23 / scenecut=40 / intra_refresh=0 / rc_lookahead=50 / rc=crf / mbtree=1 / crf=19.0 / qcomp=0.60 / qpmin=0 / qpmax=69 / qpstep=4 / ip_ratio=1.40 / aq=1:1.00
Encoded date : UTC 2011-09-08 11:43:25
Tagged date : UTC 2011-09-08 11:43:25
Matrix coefficients : BT.709
Color range : Limited

Audio
ID : 2
Format : AAC
Format/Info : Advanced Audio Codec
Format profile : LC
Codec ID : 40
Duration : 29mn 25s
Bit rate mode : Variable
Bit rate : 132 Kbps
Maximum bit rate : 204 Kbps
Channel(s) : 2 channels
Channel positions : Front: L R
Sampling rate : 48.0 KHz
Compression mode : Lossy
Stream size : 27.8 MiB (15%)
Encoded date : UTC 2011-09-08 11:43:25
Tagged date : UTC 2011-09-08 11:43:25


[/mediainfo]
 

Discussion

Comments 0

Post Your Comment

Files in this torrent

FILENAMESIZE
RARBG.com.txt34 B
Silicon.Valley.S02E01.HDTV.x264-ASAP.mp4189.3 MB
silicon.valley.s02e01.hdtv.x264-asap.nfo4.7 KB

Alternative Torrents for 'Silicon Valley ASAP'.

TORRENT NAMEADDEDSIZESEEDSPEERSHEALTH
12/19/2015185 MB00
8/15/2015180 MB00
6/8/2015180 MB00
5/25/2015172 MB00
5/25/2015172 MB00
5/18/2015192 MB00
5/18/2015192 MB00
5/11/2015185 MB00
5/4/2015175 MB00
5/4/2015175 MB00
4/20/2015156 MB00
4/13/2015196 MB00
4/13/2015189 MB00