21 Jump Street 2012 1080p BluRay X264 DTS-FGT

Torrent Details

21 Jump Street 2012 1080p BluRay x264 DTS<span style=color:#fc9c6d>-FGT</span>21 Jump Street 2012 1080p BluRay x264 DTS<span style=color:#fc9c6d>-FGT</span>

NAME
21 Jump Street 2012 1080p BluRay x264 DTS-FGT.torrent
CATEGORY
Movies
INFOHASH
69a01bec876a28de6f1b8e75488382a790e7a1a5
SIZE
10.2 GB in 2 files
ADDED
Uploaded on 15-04-2015 by our crawler pet called "Spidey".
SWARM
0 seeders & 0 peers
RATING
No votes yet.

Please login to vote for this torrent.


Description

http://imagecurl.com/viewer....ile=96857772111182310172.png
http://imagecurl.com/viewer....ile=55941198267701492159.png

MediaInfo


Video
ID : 1
Format : AVC
Format/Info : Advanced Video Codec
Format profile : [email protected]
Format settings, CABAC : Yes
Format settings, ReFrames : 5 frames
Codec ID : V_MPEG4/ISO/AVC
Duration : 1h 49mn
Bit rate : 11.3 Mbps
Width : 1 920 pixels
Height : 804 pixels
Display aspect ratio : 2.40:1
Frame rate mode : Constant
Frame rate : 23.976 fps
Color space : YUV
Chroma subsampling : 4:2:0
Bit depth : 8 bits
Scan type : Progressive
Bits/(Pixel*Frame) : 0.305
Stream size : 8.65 GiB (85%)
Writing library : x264 core 125 r2200kMod 999b753
Encoding settings : cabac=1 / ref=5 / deblock=1:-3:-3 / analyse=0x3:0x113 / me=umh / subme=11 / psy=1 / fade_compensate=0.00 / psy_rd=1.05:0.00 / mixed_ref=1 / me_range=16 / chroma_me=1 / trellis=2 / 8x8dct=1 / cqm=0 / deadzone=21,11 / fast_pskip=0 / chroma_qp_offset=-2 / threads=6 / lookahead_threads=1 / sliced_threads=0 / nr=0 / decimate=0 / interlaced=0 / bluray_compat=0 / constrained_intra=0 / bframes=8 / b_pyramid=2 / b_adapt=2 / b_bias=0 / direct=3 / weightb=1 / open_gop=0 / weightp=2 / keyint=250 / keyint_min=23 / scenecut=40 / intra_refresh=0 / rc=crf / mbtree=0 / crf=17.0000 / qcomp=0.80 / qpmin=0 / qpmax=69 / qpstep=4 / ip_ratio=1.30 / pb_ratio=1.20 / aq=1:0.90
Language : English
Default : Yes
Forced : No

Audio #1
ID : 2
Format : DTS
Format/Info : Digital Theater Systems
Mode : 16
Format settings, Endianness : Big
Codec ID : A_DTS
Duration : 1h 49mn
Bit rate mode : Constant
Bit rate : 1 509 Kbps
Channel(s) : 6 channels
Channel positions : Front: L C R, Side: L R, LFE
Sampling rate : 48.0 KHz
Bit depth : 24 bits
Compression mode : Lossy
Stream size : 1.16 GiB (11%)
Language : English
Default : Yes
Forced : No

Audio #2
ID : 3
Format : AC-3
Format/Info : Audio Coding 3
Format profile : Dolby Digital
Mode extension : CM (complete main)
Format settings, Endianness : Big
Codec ID : A_AC3
Duration : 1h 49mn
Bit rate mode : Constant
Bit rate : 192 Kbps
Channel(s) : 2 channels
Channel positions : Front: L R
Sampling rate : 48.0 KHz
Bit depth : 16 bits
Compression mode : Lossy
Stream size : 151 MiB (1%)
Title : Commentary
Language : English
Default : No
Forced : No

Text #1
ID : 4
Format : UTF-8
Codec ID : S_TEXT/UTF8
Codec ID/Info : UTF-8 Plain Text
Title : Forced
Language : English
Default : Yes
Forced : Yes

Text #2
ID : 5
Format : UTF-8
Codec ID : S_TEXT/UTF8
Codec ID/Info : UTF-8 Plain Text
Language : English
Default : No
Forced : No

Menu
00:00:00.000 : en:00:00:00.000
00:08:57.328 : en:00:08:57.328
00:18:21.684 : en:00:18:21.684
00:26:14.531 : en:00:26:14.531
00:33:15.827 : en:00:33:15.827
00:39:38.626 : en:00:39:38.626
00:45:53.292 : en:00:45:53.292
00:50:05.336 : en:00:50:05.336
00:56:19.543 : en:00:56:19.543
01:04:42.837 : en:01:04:42.837
01:09:50.186 : en:01:09:50.186
01:15:22.685 : en:01:15:22.685
01:19:53.789 : en:01:19:53.789
01:25:25.620 : en:01:25:25.620
01:34:44.679 : en:01:34:44.679
01:40:50.711 : en:01:40:50.711

Discussion

Comments 0

Post Your Comment

Files in this torrent

FILENAMESIZE
21.Jump.Street.2012.1080p.BluRay.x264.DTS-FGT.mkv10.2 GB
RARBG.com.txt34 B

Alternative Torrents for 'Jump Street BluRay DTS'.

TORRENT NAMEADDEDSIZESEEDSPEERSHEALTH
11/6/202015.9 GB00
9/27/202015.5 GB00
9/16/202025 GB00
9/16/202025.9 GB00
9/16/20209.8 GB00
9/16/202010.5 GB00
9/15/202034.9 GB00
9/15/202065.2 GB00
9/15/202025.1 GB00
9/15/202051.4 GB00
9/15/202019.4 GB00
9/15/202028.8 GB00
9/15/202039.6 GB00
9/15/202020.2 GB00
6/10/201510.6 GB00