18+ American Pie Presents Girls Rules 2020 720p Bluray

Torrent Details


18+ American Pie Presents Girls Rules<span style=color:#777> 2020</span> 720p Bluray

NAME
18+ American Pie Presents Girls Rules 2020 720p Bluray.torrent
CATEGORY
Movies
INFOHASH
9bbf38edf0a0ede7ff8c6b4eb6273ee20a4949d8
SIZE
1.5 GB in 2 files
ADDED
Uploaded on 02-03-2021 by our crawler pet called "Spidey".
SWARM
0 seeders & 0 peers
RATING
No votes yet.

Please login to vote for this torrent.


Description

Quote:





*************************************************************









******************************Thumbnbil:*********************







******************************Screenshots:********************



screenshot 1



screenshot 2



screenshot 3



screenshot 4



screenshot 5



screenshot 6



screenshot 7



screenshot 8



screenshot 9



screenshot 0





******************************************************



18+.American Pie Presents Girls Rules.2020.720p.Bluray.LLG.mp4

Format                                   : MPEG-4

Format profile                           : Base Media

Codec ID                                 : isom (isom/iso2/avc1/mp41)

File size                                : 1.49 GiB

Duration                                 : 1 h 35 min

Overall bit rate mode                    : Variable

Overall bit rate                         : 2 227 kb/s

Writing application                      : Lavf58.29.100



Video

ID                                       : 1

Format                                   : AVC

Format/Info                              : Advanced Video Codec

Format profile                           : [email protected]

Format settings                          : CABAC / 1 Ref Frames

Format settings, CABAC                   : Yes

Format settings, Reference frames        : 1 frame

Codec ID                                 : avc1

Codec ID/Info                            : Advanced Video Coding

Duration                                 : 1 h 35 min

Bit rate mode                            : Variable

Bit rate                                 : 1 522 kb/s

Maximum bit rate                         : 4 500 kb/s

Width                                    : 1 280 pixels

Height                                   : 720 pixels

Display aspect ratio                     : 16:9

Frame rate mode                          : Constant

Frame rate                               : 23.976 (23976/1000) FPS

Color space                              : YUV

Chroma subsampling                       : 4:2:0

Bit depth                                : 8 bits

Scan type                                : Progressive

Bits/(Pixel*Frame)                       : 0.069

Stream size                              : 1.01 GiB (68%)

Codec configuration box                  : avcC



Audio

ID                                       : 2

Format                                   : DTS

Format/Info                              : Digital Theater Systems

Codec ID                                 : mp4a-A9

Duration                                 : 1 h 35 min

Bit rate mode                            : Constant

Bit rate                                 : 702 kb/s

Channel(s)                               : 6 channels

Channel layout                           : C L R Ls Rs LFE

Sampling rate                            : 48.0 kHz

Frame rate                               : 93.750 FPS (512 SPF)

Bit depth                                : 16 bits

Compression mode                         : Lossy

Stream size                              : 480 MiB (32%)

Language                                 : English

Default                                  : Yes

Alternate group                          : 1













********************************************************

Discussion

Comments 0

Post Your Comment

Files in this torrent

FILENAMESIZE
18+.American Pie Presents Girls Rules.2020.720p.Bluray.LLG.mp41.5 GB
Sample.ts21 MB

Alternative Torrents for 'American Pie Presents Girls Rules Bluray'.

TORRENT NAMEADDEDSIZESEEDSPEERSHEALTH
12/29/20211.8 GB7010
1/20/202210.6 GB218
12/29/20211.2 GB124
1/15/20221.5 GB111
1/1/2021865 MB111
1/20/20224.8 GB71
12/30/20212.3 GB51
1/24/20224.9 GB21
3/2/20211.5 GB00
1/2/2021923 MB00
1/1/202113.8 GB06