Zack Snyder S Justice League 2021 WEB-DL 1080p SeleZen

Torrent Details


Zack Snyder s Justice League 2021 WEB-DL 1080p<span style=color:#fc9c6d> seleZen</span>

NAME
Zack Snyder s Justice League 2021 WEB-DL 1080p seleZen.torrent
CATEGORY
Movies
INFOHASH
b9c8fadbe20e622546bbf0882c71284927fc47b2
SIZE
9.7 GB in 1 file
ADDED
Uploaded on 21-03-2021 by our crawler pet called "Spidey".
SWARM
241 seeders & 8 peers
RATING
No votes yet.

Please login to vote for this torrent.


Description

Информация о фильме

Название: Лига справедливости Зака Снайдера

Оригинальное название: Zack Snyder's Justice League

Год выхода: 2021

Жанр: Фантастика, фэнтези, боевик, супергерой, комикс, сюрреализм

Режиссер: Зак Снайдер

В ролях: Бен Аффлек, Галь Гадот, Генри Кавилл, Джейсон Момоа, Эзра Миллер, Рэй Фишер, Эми Адамс, Джереми Айронс, Дайан Лэйн, Джаред Лето







О фильме: Вдохновившись самопожертвованием Супермена, Брюс Уэйн вновь обретает веру в человечество. Он заручается поддержкой новой союзницы Дианы Принс, чтобы сразиться с ещё более могущественным противником. Бэтмен и Чудо-женщина набирают команду сверхлюдей для борьбы с пробудившейся угрозой.



Страна: США

Студия: Atlas Entertainment, DC Entertainment, DC Films, HBO Max, RatPac-Dune Entertainment, The Stone Quarry, Warner Bros., Warner Bros. Pictures, Warner Max

Продолжительность: 04:02:03

Перевод: Дублированный (Мосфильм-Мастер)



Качество: WEB-DL 1080p

Видео: MPEG-4 AVC, 1440x1080, 4957 Kbit/s, 23.976 fps

Аудио #01: 48 kHz, AC3, 5.1, 384 Kbps | Дублированный | RUS |

Аудио #02: 48 kHz, AC3, 5.1, 384 Kbps | Оригинал | ENG |

Субтитры: Русские (Forced, full), украинские (Full), английские







MIGeneral

Unique ID : 34520449287195480828593352891594358693 (0x19F8658DF92C15DCCA57F4F6785EBFA5)

Complete name : F:VideoZack.Snyder.s.Justice.League.2021.WEB-DL.1080p.seleZen.mkv

Format : Matroska

Format version : Version 4

File size : 9.68 GiB

Duration : 4 h 1 min

Overall bit rate : 5 728 kb/s

Movie name : Zack Snyder's Justice League 2021 from seleZen

Encoded date : UTC 2021-03-21 04:24:21

Writing application : mkvmerge v55.0.0 ('Waiting For Space') 64-bit

Writing library : libebml v1.4.2 + libmatroska v1.6.4



Video

ID : 1

Format : AVC

Format/Info : Advanced Video Codec

Format profile : [email protected]

Format settings : CABAC / 5 Ref Frames

Format settings, CABAC : Yes

Format settings, Reference : 5 frames

Codec ID : V_MPEG4/ISO/AVC

Duration : 4 h 1 min

Bit rate : 4 957 kb/s

Width : 1 440 pixels

Height : 1 080 pixels

Display aspect ratio : 4:3

Frame rate mode : Constant

Frame rate : 23.976 (24000/1001) FPS

Color space : YUV

Chroma subsampling : 4:2:0

Bit depth : 8 bits

Scan type : Progressive

Bits/(Pixel*Frame) : 0.133

Stream size : 8.38 GiB (87%)

Language : English

Default : Yes

Forced : No



Audio #1

ID : 2

Format : AC-3

Format/Info : Audio Coding 3

Commercial name : Dolby Digital

Codec ID : A_AC3

Duration : 4 h 1 min

Bit rate mode : Constant

Bit rate : 384 kb/s

Channel(s) : 6 channels

Channel layout : L R C LFE Ls Rs

Sampling rate : 48.0 kHz

Frame rate : 31.250 FPS (1536 SPF)

Compression mode : Lossy

Delay relative to video : 28 ms

Stream size : 665 MiB (7%)

Title : Dub [Mosfilm-Master]

Language : Russian

Service kind : Complete Main

Default : Yes

Forced : Yes



Audio #2

ID : 3

Format : AC-3

Format/Info : Audio Coding 3

Commercial name : Dolby Digital

Codec ID : A_AC3

Duration : 4 h 1 min

Bit rate mode : Constant

Bit rate : 384 kb/s

Channel(s) : 6 channels

Channel layout : L R C LFE Ls Rs

Sampling rate : 48.0 kHz

Frame rate : 31.250 FPS (1536 SPF)

Compression mode : Lossy

Delay relative to video : 28 ms

Stream size : 665 MiB (7%)

Title : Original

Language : English

Service kind : Complete Main

Default : No

Forced : No



Text #1

ID : 4

Format : UTF-8

Codec ID : S_TEXT/UTF8

Codec ID/Info : UTF-8 Plain Text

Duration : 3 h 44 min

Bit rate : 0 b/s

Count of elements : 28

Stream size : 1.51 KiB (0%)

Title : Forced

Language : Russian

Default : Yes

Forced : Yes



Text #2

ID : 5

Format : UTF-8

Codec ID : S_TEXT/UTF8

Codec ID/Info : UTF-8 Plain Text

Duration : 3 h 50 min

Bit rate : 55 b/s

Count of elements : 1767

Stream size : 93.6 KiB (0%)

Title : Full

Language : Russian

Default : No

Forced : No



Text #3

ID : 6

Format : UTF-8

Codec ID : S_TEXT/UTF8

Codec ID/Info : UTF-8 Plain Text

Duration : 3 h 47 min

Bit rate : 58 b/s

Count of elements : 1896

Stream size : 96.8 KiB (0%)

Title : Full

Language : Ukrainian

Default : No

Forced : No



Text #4

ID : 7

Format : UTF-8

Codec ID : S_TEXT/UTF8

Codec ID/Info : UTF-8 Plain Text

Duration : 3 h 56 min

Bit rate : 30 b/s

Count of elements : 2068

Stream size : 53.5 KiB (0%)

Title : Full

Language : English

Default : No

Forced : No



Text #5

ID : 8

Format : UTF-8

Codec ID : S_TEXT/UTF8

Codec ID/Info : UTF-8 Plain Text

Duration : 4 h 0 min

Bit rate : 40 b/s

Count of elements : 2799

Stream size : 71.7 KiB (0%)

Title : SDH

Language : English

Default : No

Forced : No



Релиз: Присоединяйся к:



Discussion

Comments 0

Post Your Comment

Files in this torrent

FILENAMESIZE
Zack.Snyder.s.Justice.League.2021.WEB-DL.1080p.seleZen.mkv9.7 GB

Alternative Torrents for 'Zack Snyder Justice League'.

TORRENT NAMEADDEDSIZESEEDSPEERSHEALTH
5/9/20215 MB124
5/10/20213.8 GB710
5/10/20217.1 GB615
4/15/20217.5 GB00
4/14/20215.7 GB00
4/13/2021541 MB00
4/3/20212.3 GB00
4/3/20211.2 GB00
3/30/202114.6 GB00
3/26/202117.4 GB00
3/26/202139.8 GB00
3/26/20211.8 GB00
3/25/202113.9 GB00
3/25/202110.8 GB00
3/25/20214.5 GB00