Zack Snyder's Justice League (2021)-VIDEO 18 ; 9-WebRip-1080p H264 DolbyD 5 1 ⛦ Nickarad

Torrent Details

Zack Snyder's Justice League (2021)-VIDEO 18 ; 9-WebRip-1080p H264 DolbyD 5 1 ⛦ nickaradZack Snyder's Justice League (2021)-VIDEO 18 ; 9-WebRip-1080p H264 DolbyD 5 1 ⛦ nickarad

NAME
Zack Snyder's Justice League (2021)-VIDEO 18 ; 9-WebRip-1080p H264 DolbyD 5 1 ⛦ nickarad.torrent
CATEGORY
Movies
INFOHASH
8b3b50858e5042e9eb8b480073064309c14bf85c
SIZE
7.6 GB in 2 files
ADDED
Uploaded on 21-03-2021 by our crawler pet called "Spidey".
SWARM
10 seeders & 1 peers
RATING
No votes yet.

Please login to vote for this torrent.


Description

This movie is played in Format Video 16:9 (OUT VIDEO D.A.R 18:9) to respect Master ©️nickarad's direct vision ...



I'm going to keep this movie at Seed just 24 hours after upload for personal reasons.



So, for those who want to make Seed further, thank them in advance.

I have uploaded all my Movies on the Uloz.to website because I do not have enough space on the own external HDD. So who will want to see movie must do in the future only on that website for download.....Here's Link Direct For Download :https://ulozto.net/file/L4MfZLGgjJua/zack-snyder-s-justice-league-2021-video-out-18-9-1080p-h264-dolbyd-5-1-nickarad-mp4





ENJOY !!!





IMAGE FROM MOVIE UPLOADED:







INFO MOVIE :



Format                                   : MPEG-4

Format profile                           : Base Media

Codec ID                                 : isom (isom/iso2/avc1/mp41)

Dimensiunea fisierului                 : 7,57 GiB

Duration                                 : 4 h 2 min

BitRate general                         : 4 479 kb/s

Numele filmului                         : Zack Snyder's Justice League (2021)

Gen                                      : Video

Dezvoltator aplicatie                  : Lavf58.29.100



Video

ID                                       : 1

Format                                   : AVC

Format/Info                              : Advanced Video Codec

Format profile                           : [email protected]

Format settings                          : CABAC / 4 Ref Frames

Format settings, CABAC               : Da

Format settings, Reference frames   : 4 frames

Codec ID                                 : avc1

Codec ID/Info                           : Advanced Video Coding

Duration                                 : 4 h 2 min

Bit Rate                                  : 3 833 kb/s

Nominal bit rate                       : 4 700 kb/s

Latime                                   : 1 920pixeli

Inaltime                                 : 1 080pixeli

Raport imagine                           : 16:9

Frame rate mode                        : Constant

Frecventa cadre                         : 23,976 (24000/1001)pfs

Color space                              : YUV

Chroma subsampling                   : 4:2:0

Bit depth                                  : 8biti

Scan type                                : Progressive

Bits/(Pixel*Frame)                       : 0.077

Stream size                              : 6,48 GiB (86%)

Dezvoltator biblioteci                   : x264 core 159

Setari codare                            : cabac=1 / ref=3 / deblock=1:-1:-1 / analyse=0x3:0x13 / me=hex / subme=7 / psy=1 / psy_rd=1.00:0.15 / mixed_ref=1 / me_range=16 / chroma_me=1 / trellis=1 / 8x8dct=1 / cqm=0 / deadzone=21,11 / fast_pskip=1 / chroma_qp_offset=-3 / threads=12 / lookahead_threads=2 / sliced_threads=0 / nr=0 / decimate=1 / interlaced=0 / bluray_compat=0 / constrained_intra=0 / bframes=2 / b_pyramid=2 / b_adapt=1 / b_bias=0 / direct=1 / weightb=1 / open_gop=0 / weightp=2 / keyint=250 / keyint_min=25 / scenecut=40 / intra_refresh=0 / rc_lookahead=40 / rc=cbr / mbtree=1 / bitrate=4700 / ratetol=1.0 / qcomp=0.60 / qpmin=0 / qpmax=69 / qpstep=4 / vbv_maxrate=4700 / vbv_bufsize=1835 / nal_hrd=none / filler=0 / ip_ratio=1.40 / aq=1:1.00

Codec configuration box                  : avcC



Audio

ID                                       : 2

Format                                   : AC-3

Format/Info                              : Audio Coding 3

Commercial name                    : Dolby Digital

Codec ID                                : ac-3

Duration                                 : 4 h 2 min

Bit rate mode                         : Constant

Bit rate                                 : 640 kb/s

Canal(e)                               : 6canale

Channel layout                          : L R C LFE Ls Rs

Sampling rate                            : 48,0 kHz

Frecventa cadre                        : 31,250pfs (1536 SPF)

Compression mode                  : Lossy

Stream size                              : 1,08 GiB (14%)

Traducere                                : English

Service kind                            : Complete Main

Default                                  : Da

Alternate group                     : 1





CAST:

 Ben Affleck

Batman / Bruce Wayne



Henry Cavill

Superman / Clark Kent



Amy Adams

Lois Lane



Gal Gadot

Wonder Woman / Diana Prince



and more great actors............





STORYLINE:

 Zack Snyder's definitive director's cut of Justice League. Determined to ensure Superman's ultimate sacrifice was not in vain, Bruce Wayne aligns forces with Diana Prince with plans to recruit a team of metahumans to protect the world from an approaching threat of catastrophic proportions.  ....





LINK IMDB:

https://www.imdb.com/title/tt12361974





This movie offered of nickarad for all users, by kindness the staff of on website www.gtdb.to

Your Source Of Movies.ENJOY ALL !

Discussion

Comments 0

Post Your Comment

Files in this torrent

FILENAMESIZE
Zack Snyder's Justice League (2021) 1.png1.5 MB
Zack Snyder's Justice League (2021) 2.png1.3 MB

Alternative Torrents for 'Zack Snyder&;s Justice League VIDEO DolbyD ⛦ nickarad'.

TORRENT NAMEADDEDSIZESEEDSPEERSHEALTH
3/21/20217.6 GB00