Zack Snyder's Justice League (2021) WEBRip 1080p [Ukr Eng Sub Ukr Eng] [Цікава Ідея]

Torrent Details


Zack Snyder's Justice League (2021) WEBRip 1080p [Ukr Eng Sub Ukr Eng] [Цікава Ідея]

NAME
Zack Snyder's Justice League (2021) WEBRip 1080p [Ukr Eng Sub Ukr Eng] [Цікава Ідея].torrent
CATEGORY
Movies
INFOHASH
fe32c7c201f6fa82b651221414284c50f76b5369
SIZE
17 GB in 0 files
ADDED
Uploaded on 21-03-2021 by our crawler pet called "Spidey".
SWARM
1 seeders & 1 peers
RATING
No votes yet.

Please login to vote for this torrent.


Description

Информация о фильме

Название: Лига справедливости Зака Снайдера

Оригинальное название: Zack Snyder's Justice League

Год выхода: 2021

Жанр: Фантастика, фэнтези, боевик, приключения





Режиссер: Зак Снайдер





В ролях: Бен Аффлек, Галь Гадот, Генри Кавилл, Дайан Лэйн, Джаред Лето, Эзра Миллер, Джейсон Момоа, Конни Нильсен, Дж.К. Симмонс, Робин Райт и др.





О фильме:

Вдохновившись самопожертвованием Супермена, Брюс Уэйн вновь обретает веру в человечество. Он заручается поддержкой новой союзницы Дианы Принс, чтобы сразиться с ещё более могущественным противником. Бэтмен и Чудо-женщина набирают команду сверхлюдей для борьбы с пробудившейся угрозой.











Страна: США

Продолжительность: 04:02:07

Перевод: Профессиональный многоголосый (Украинский) | Цікава Ідея





Файл

Кодек: x.264

Качество: WEBRip 1080p

Видео: AVC, 1440x1080 (16:9), 23.976 fps, 8 955 kb/s

Аудио 1: AC3, 48.0 kHz, 6 ch, 448 kb/s | UKR

Аудио 2: E-AC3, 48.0 kHz, 6 ch, 640 kb/s | ENG

Субтитры: Украинские, английские







MIFormat : Matroska

Format version : Version 4

File size : 17.0 GiB

Duration : 4 h 2 min

Overall bit rate : 10.0 Mb/s

Movie name : Ліга справедливості Зака Снайдера / Zack Snyder's Justice League (2021) WEBRip 1080p [Ukr.Eng Sub.Ukr.Eng] [Цікава Ідея]

Encoded date : UTC 2021-03-21 12:12:35

Writing application : mkvmerge v50.0.0 ('Awakenings') 64-bit

Writing library : libebml v1.4.0 + libmatroska v1.6.2

Cover : Yes

Attachments : cover.jpg



Video

ID : 1

Format : AVC

Format/Info : Advanced Video Codec

Format profile : [email protected]

Format settings : CABAC / 4 Ref Frames

Format settings, CABAC : Yes

Format settings, Reference frames : 4 frames

Codec ID : V_MPEG4/ISO/AVC

Duration : 4 h 2 min

Bit rate mode : Constant

Bit rate : 8 955 kb/s

Nominal bit rate : 10 000 kb/s

Width : 1 440 pixels

Height : 1 080 pixels

Display aspect ratio : 4:3

Frame rate mode : Constant

Frame rate : 23.976 (24000/1001) FPS

Color space : YUV

Chroma subsampling : 4:2:0

Bit depth : 8 bits

Scan type : Progressive

Bits/(Pixel*Frame) : 0.240

Stream size : 15.1 GiB (89%)

Default : Yes

Forced : No

Color range : Limited

Color primaries : BT.709

Transfer characteristics : BT.709

Matrix coefficients : BT.709



Audio #1

ID : 2

Format : AC-3

Format/Info : Audio Coding 3

Commercial name : Dolby Digital

Codec ID : A_AC3

Duration : 4 h 2 min

Bit rate mode : Constant

Bit rate : 448 kb/s

Channel(s) : 6 channels

Channel layout : L R C LFE Ls Rs

Sampling rate : 48.0 kHz

Frame rate : 31.250 FPS (1536 SPF)

Compression mode : Lossy

Stream size : 776 MiB (4%)

Title : Цікава Ідея

Language : Ukrainian

Service kind : Complete Main

Default : Yes

Forced : Yes



Audio #2

ID : 3

Format : E-AC-3

Format/Info : Enhanced AC-3

Commercial name : Dolby Digital Plus

Codec ID : A_EAC3

Duration : 4 h 2 min

Bit rate mode : Constant

Bit rate : 640 kb/s

Channel(s) : 6 channels

Channel layout : L R C LFE Ls Rs

Sampling rate : 48.0 kHz

Frame rate : 31.250 FPS (1536 SPF)

Compression mode : Lossy

Stream size : 1.08 GiB (6%)

Title : Original

Language : English

Service kind : Complete Main

Default : No

Forced : No



Text #1

ID : 4

Format : UTF-8

Codec ID : S_TEXT/UTF8

Codec ID/Info : UTF-8 Plain Text

Duration : 4 h 0 min

Bit rate : 40 b/s

Count of elements : 2814

Stream size : 70.7 KiB (0%)

Title : Original

Language : English

Default : No

Forced : No



Text #2

ID : 5

Format : UTF-8

Codec ID : S_TEXT/UTF8

Codec ID/Info : UTF-8 Plain Text

Duration : 3 h 54 min

Bit rate : 50 b/s

Count of elements : 2032

Stream size : 86.7 KiB (0%)

Title : Цікава Ідея

Language : Ukrainian

Default : No

Forced : NoСкриншоты

Discussion

Comments 0

Post Your Comment

Torrent Files (Unavailable)

Please check back later to get a list of all files included in this torrent.

Alternative Torrents for 'Zack Snyder&;s Justice League Ukr Eng Sub Ukr Eng Цікава Ідея'.

TORRENT NAMEADDEDSIZESEEDSPEERSHEALTH
3/21/202117 GB00