Star Wars Episode II Attack Of The Clones 2002 REMASTERED BRRip XviD B4ND1T69

Torrent Details

Star Wars Episode II Attack of the Clones 2002 REMASTERED BRRip XviD<span style=color:#fc9c6d> B4ND1T69</span>

NAME
Star Wars Episode II Attack of the Clones 2002 REMASTERED BRRip XviD B4ND1T69.torrent
CATEGORY
Movies
INFOHASH
2d698f030123d54e83e077a49fcda4916900ea89
SIZE
1.4 GB in 7 files
ADDED
Uploaded on 22-03-2021 by our crawler pet called "Spidey".
SWARM
5 seeders & 1 peers
RATING
No votes yet.

Please login to vote for this torrent.


Description

Star.Wars.Episode.II.Attack.of.the.Clones.2002.REMASTERED.BRRip.XviD.B4ND1T69







Director: George Lucas

Writers: George Lucas (screenplay by), Jonathan Hales (screenplay by)

Stars: Hayden Christensen, Natalie Portman, Ewan McGregor



Plot/Story:

Ten years after initially meeting, Anakin Skywalker shares a forbidden romance with Padmé Amidala, while Obi-Wan Kenobi investigates an assassination attempt on the senator and discovers a secret clone army crafted for the Jedi.



General

Complete name               : Star.Wars.Episode.II.Attack.of.the.Clones.2002.REMASTERED.BRRip.XviD.B4ND1T69.avi

Format                      : AVI

Format/Info                 : Audio Video Interleave

File size                   : 1.40 GiB

Duration                    : 2 h 22 min

Overall bit rate            : 1 410 kb/s

Subtitles                   : Yes...Hardcoded for non-English parts + file included(HI)



Video

ID                          : 0

Format                      : MPEG-4 Visual

Format profile              : Advanced [email protected]

Format settings, BVOP       : 2

Format settings, QPel       : No

Format settings, GMC        : No warppoints

Format settings, Matrix     : Default (H.263)

Codec ID                    : XVID

Codec ID/Hint               : XviD

Duration                    : 2 h 22 min

Bit rate                    : 1 269 kb/s

Width                       : 720 pixels

Height                      : 304 pixels

Display aspect ratio        : 2.35:1

Frame rate                  : 23.976 (24000/1001) FPS

Color space                 : YUV

Chroma subsampling          : 4:2:0

Bit depth                   : 8 bits

Scan type                   : Progressive

Compression mode            : Lossy

Bits/(Pixel*Frame)          : 0.242

Stream size                 : 1.26 GiB (90%)

Writing library             : XviD 64



Audio

ID                          : 1

Format                      : MPEG Audio

Format version              : Version 1

Format profile              : Layer 3

Codec ID                    : 55

Codec ID/Hint               : MP3

Duration                    : 2 h 22 min

Bit rate mode               : Constant

Bit rate                    : 128 kb/s

Channel(s)                  : 2 channels

Sampling rate               : 48.0 kHz

Compression mode            : Lossy

Stream size                 : 130 MiB (9%)

Alignment                   : Aligned on interleaves

Interleave, duration        : 24  ms (0.58 video frame)



Screenshots:




















Please Seed For As Long As Possible

Or At Least 1:1 Ratio...Thanks

Enjoy Peeps

Discussion

Comments 0

Post Your Comment

Files in this torrent

FILENAMESIZE
Downloaded from 1337x.txt61 B
Downloaded from ETTV.txt55 B
Downloaded from Glodls.to.txt261 B
Downloaded from ProStyleX.txt54 B
Downloaded from The Pirate Bay.txt57 B
Star.Wars.Episode.II.Attack.of.the.Clones.2002.REMASTERED.BRRip.XviD.B4ND1T69.avi1.4 GB
Star.Wars.Episode.II.Attack.of.the.Clones.2002.REMASTERED.BRRip.XviD.B4ND1T69.srt95.6 KB

Alternative Torrents for 'Star Wars Episode II Attack of Clones REMASTERED'.

TORRENT NAMEADDEDSIZESEEDSPEERSHEALTH
5/17/2021993 MB130
3/22/20211.4 GB51
10/20/20204.9 GB10
5/28/20201 GB00
5/28/20208.6 GB00
5/28/20204.6 GB00
5/20/20202 GB00
5/9/20202.2 GB00
5/4/202011.8 GB00
5/3/202042.9 GB00
5/3/20202.7 GB00
5/3/202042.5 GB00
5/3/20201.7 GB00
5/3/20201.8 GB00
5/3/202011.4 GB00