Munni Metric Pass (2015) Hot B-Grade Hindi Movie 720p - Sexy Scenes Compilation MP4

Torrent Details

Munni Metric Pass (2015) Hot B-Grade Hindi Movie 720p - Sexy Scenes Compilation MP4Munni Metric Pass (2015) Hot B-Grade Hindi Movie 720p - Sexy Scenes Compilation MP4

NAME
Munni Metric Pass (2015) Hot B-Grade Hindi Movie 720p - Sexy Scenes Compilation MP4.torrent
CATEGORY
Adult
INFOHASH
56323203fb4c93c6fb328d0624dea7eda02ba5d4
SIZE
122 MB in 3 files
ADDED
Uploaded on 06-05-2015 by our crawler pet called "Spidey".
SWARM
0 seeders & 0 peers
RATING
No votes yet.

Please login to vote for this torrent.


Description

Munni Metric Pass (2015) Hot B-Grade Hindi Movie 720p - Sexy Scenes Compilation MP4 {Team KAAMA exclusive}



http://imgserve.net/img-554a4ca4ebbcc.html

http://imgserve.net/img-554a4cabcce6b.html

http://imgserve.net/img-554a4cb23313a.html

http://imgserve.net/img-554a4cbfec473.html

http://imgserve.net/img-554a4cc4c44ff.html

http://imgserve.net/img-554a4ccbef099.html

http://imgserve.net/img-554a4cd041cc4.html

http://imgserve.net/img-554a4cd1810a2.html

http://imgserve.net/img-554a4cd276b40.html

http://imgserve.net/img-554a4cd402bca.html

http://imgserve.net/img-554a4cd5f2ff4.html

http://imgserve.net/img-554a4cd77370a.html

http://imgserve.net/img-554a4cd8de268.html

http://imgserve.net/img-554a4cdab9416.html

http://imgserve.net/img-554a4cdc10aee.html

http://imgserve.net/img-554a4cdd82f1c.html

http://imgserve.net/img-554a4cdeb91cc.html

http://imgserve.net/img-554a4cdfdb222.html









Media Info:
General
Format : MPEG-4
Format profile : Base Media / Version 2
Codec ID : mp42
File size : 122 MiB
Duration : 20mn 45s
Overall bit rate mode : Variable
Overall bit rate : 823 Kbps
Encoded date : UTC 2015-05-06 10:01:18
Tagged date : UTC 2015-05-06 10:01:18

Video
ID : 1
Format : AVC
Format/Info : Advanced Video Codec
Format profile : [email protected]
Format settings, CABAC : Yes
Format settings, ReFrames : 3 frames
Codec ID : avc1
Codec ID/Info : Advanced Video Coding
Duration : 20mn 45s
Source duration : 20mn 45s
Bit rate : 694 Kbps
Width : 1 280 pixels
Height : 578 pixels
Display aspect ratio : 2.2:1
Frame rate mode : Variable
Frame rate : 30.000 fps
Minimum frame rate : 30.000 fps
Maximum frame rate : 30.030 fps
Standard : NTSC
Color space : YUV
Chroma subsampling : 4:2:0
Bit depth : 8 bits
Scan type : Progressive
Bits/(Pixel*Frame) : 0.031
Stream size : 103 MiB (84%)
Source stream size : 103 MiB (84%)
Language : English
Encoded date : UTC 2015-05-06 10:01:18
Tagged date : UTC 2015-05-06 10:01:18
mdhd_Duration : 1245567

Audio
ID : 2
Format : AAC
Format/Info : Advanced Audio Codec
Format profile : LC
Codec ID : 40
Duration : 20mn 45s
Source duration : 20mn 45s
Bit rate mode : Variable
Bit rate : 126 Kbps
Maximum bit rate : 526 Kbps
Channel(s) : 2 channels
Channel positions : Front: L R
Sampling rate : 44.1 KHz
Compression mode : Lossy
Stream size : 18.7 MiB (15%)
Source stream size : 18.7 MiB (15%)
Language : English
Encoded date : UTC 2015-05-06 10:01:18
Tagged date : UTC 2015-05-06 10:01:18
mdhd_Duration : 1245611



Discussion

Comments 0

Post Your Comment

Files in this torrent

FILENAMESIZE
Downloaded from Kickass.txt43 B
Munni Metric Pass (2015) Hot B-Grade Hindi Movie 720p - Sexy Scenes Compilation {Team KAAMA exclusive}.mp4122.2 MB
Secret.txt457 B

Alternative Torrents for 'Munni Metric Pass Hot BGrade Hindi Movie Sexy Scenes Compilation'.

There are no alternative torrents found.