Zack Snyder's Justice League (2021) [2K] [3D HSBS] [H264] [DolbyD 5 1] ⛦ Nickarad

Torrent Details

Zack Snyder's Justice League (2021) [2K] [3D HSBS] [H264] [DolbyD 5 1] ⛦ nickaradZack Snyder's Justice League (2021) [2K] [3D HSBS] [H264] [DolbyD 5 1] ⛦ nickarad

NAME
Zack Snyder's Justice League (2021) [2K] [3D HSBS] [H264] [DolbyD 5 1] ⛦ nickarad.torrent
CATEGORY
Movies
INFOHASH
cb2799687bd4740f958160319992872996b711df
SIZE
39.8 GB in 3 files
ADDED
Uploaded on 26-03-2021 by our crawler pet called "Spidey".
SWARM
1 seeders & 3 peers
RATING
No votes yet.

Please login to vote for this torrent.


Description

I present in the World Premiere version in 3D HSBS with resolution 2K (2880x1080p) this movie. I encoded this movie for respect Master ©️nickarad's direct vision. I hope you like it...

Because, this copy source was in WEB format, then I had to modify and solve the deficiencies of this WEB format (R or DL) in aspect ratio 4:3, so I can do 2K encoding. That's why for a good 3D quality I had to accept a final size of about 39 GB of the movie.

Unfortunately having no space on external HDD,I will have to upload to a hosting website. So I'll leave it only 24 hours, since I uploaded it, after that you can only download it from the website of hyosting or if it has seeders from this website.



Link download : https://ulozto.net/folder/8vozVs7xXJ9c



ENJOY!!!





POSTER MOVIE







IMAGE FROM MOVIE UPLOADED:

 





INFO DATE:



Nume complet                        Zack Snyder's Justice League (2021) [2K] [3D HSBS] [H264] [DolbyD 5.1] & nickarad.mp4

Format                                   : MPEG-4

Format profile                        : Base Media

Codec ID                                 : isom (isom/iso2/avc1/mp41)

Dimensiunea fisierului           : 39,8 GiB

Duration                                 : 4 h 2 min

BitRate general                      : 23,6 Mb/s

Dezvoltator aplicatie              : Lavf58.29.100



Video

ID                                       : 1

Format                                   : AVC

Format/Info                            : Advanced Video Codec

Format profile                        : [email protected]

Format settings                     : CABAC / 1 Ref Frames

Format settings, CABAC       : Da

Format settings, Reference frames        : 1 frame

Codec ID                                 : avc1

Codec ID/Info                         : Advanced Video Coding

Duration                                 : 4 h 2 min

Bit rate                                   : 22,9 Mb/s

Width                                    : 2 880pixeli

High                                      : 1 080pixeli

Raport imagine                      : 2,667

Frame rate mode                    : Constant

Frecventa cadre                      : 23,976 (24000/1001)pfs

Color space                            : YUV

Chroma subsampling            : 4:2:0

Bit depth                                : 8biti

Scan type                               : Progressive

Bits/(Pixel*Frame)                  : 0.307

Stream size                             : 38,7 GiB (97%)

Dezvoltator biblioteci             : x264 core 158 r2984 3759fcb

Setari codare                          : cabac=1 / ref=1 / deblock=1:0:0 / analyse=0x3:0x113 / me=hex / subme=2 / psy=1 / psy_rd=1.00:0.00 / mixed_ref=0 / me_range=16 / chroma_me=1 / trellis=0 / 8x8dct=1 / cqm=0 / deadzone=21,11 / fast_pskip=1 / chroma_qp_offset=0 / threads=12 / lookahead_threads=4 / sliced_threads=0 / nr=0 / decimate=1 / interlaced=0 / bluray_compat=0 / constrained_intra=0 / bframes=0 / weightp=1 / keyint=24 / keyint_min=2 / scenecut=40 / intra_refresh=0 / rc_lookahead=10 / rc=crf / mbtree=1 / crf=18.0 / qcomp=0.60 / qpmin=18 / qpmax=18 / qpstep=4 / ip_ratio=1.40 / aq=1:1.00

Color range                            : Full

Codec configuration box       : avcC



Audio

ID                                       : 2

Format                                  : AC-3

Format/Info                          : Audio Coding 3

Commercial name                : Dolby Digital

Codec ID                              : ac-3

Duration                               : 4 h 2 min

Bit rate mode                       : Constant

Bit rate                                 : 640 kb/s

Canal(e)                               : 6canale

Channel layout                    : L R C LFE Ls Rs

Sampling rate                      : 48,0 kHz

Frecventa cadre                   : 31,250pfs (1536 SPF)

Compression mode             : Lossy

Stream size                          : 1,08 GiB (3%)

Service kind                         : Complete Main

Default                                  : Da

Alternate group                    : 1







CAST:

Ben Affleck

Batman / Bruce Wayne



Henry Cavill

Superman / Clark Kent



Amy Adams

Lois Lane



Gal Gadot

Wonder Woman / Diana Prince



and more great actors........ ....





STORYLINE:

  Zack Snyder's definitive director's cut of Justice League. Determined to ensure Superman's ultimate sacrifice was not in vain, Bruce Wayne aligns forces with Diana Prince with plans to recruit a team of metahumans to protect the world from an approaching threat of catastrophic proportions. ....





LINK IMDB:

https://www.imdb.com/title/tt12361974





This movie offered of nickarad for all users, by kindness the staff of on website www.gtdb.to

Your Source Of Movies.ENJOY ALL !

Discussion

Comments 0

Post Your Comment

Files in this torrent

FILENAMESIZE
Zack Snyder's Justice League (2021) 1 3D.png1.9 MB
Zack Snyder's Justice League (2021) 2 3D.png2 MB
Zack Snyder's Justice League (2021) [2K] [3D HSBS] [H264] [DolbyD 5.1] & nickarad.mp439.8 GB

Alternative Torrents for 'Zack Snyder&;s Justice League K D HSBS H DolbyD ⛦ nickarad'.

There are no alternative torrents found.