Tom Holkenborg - Zack Snyder's Justice League (2021)

Torrent Details


Tom Holkenborg - Zack Snyder's Justice League (2021)

NAME
Tom Holkenborg - Zack Snyder's Justice League (2021).torrent
CATEGORY
Music
INFOHASH
0b7d1fb3742ecac23ba16e7fc717073070e162bd
SIZE
1.2 GB in 56 files
ADDED
Uploaded on 03-04-2021 by our crawler pet called "Spidey".
SWARM
0 seeders & 0 peers
RATING
No votes yet.

Please login to vote for this torrent.


Description

Название: Лига справедливости Зака Снайдера / Zack Snyder’s Justice League

Исполнитель: Tom Holkenborg (Junkie XL)

Год: 2021

Жанр: Soundtrack, Instrumental

Страна: США/USA



Продолжительность: 03:54:10

Формат/Кодек: FLAC

Битрейт аудио: lossless (16/44)





Трек-лист

01. Song to the Siren (Allison Crowe)

02. A Hunter Gathers

03. Migratory

04. Things Fall Apart

05. Wonder Woman Defending / And What Rough Beast

06. World Ending Fire

07. Middle Mass

08. Long Division

09. No Paradise, No Fall

10. The Center Will Not Hold, Twenty Centuries of Stony Sleep

11. As Above, So Below

12. No Dog, No Master

13. Take This Kingdom by Force

14. A Splinter from the Thorn That Pricked You

15. Cyborg Becoming / Human All Too Human

16. The Path Chooses You

17. Aquaman Returning / Carry Your Own Water

18. The Provenance of Something Gathered

19. We Do This Together

20. The Will to Power

21. Smoke Become Fire

22. I Teach You, the Overman

23. A Glimmer at the Door of the Living

24. How We Achieve Ourselves

25. The Sun Forever Rising

26. Underworld

27. Superman Rising, Pt. 1 / A Book of Hours

28. Beyond Good and Evil

29. Monument Builder

30. Monument Destroyer

31. Urgrund

32. So Begins the End

33. The House of Belonging

34. Earthling

35. Flight Is Our Nature

36. Indivisible

37. And the Lion-Earth Did Roar, Pt. 1

38. And the Lion-Earth Did Roar, Pt. 2

39. Superman Rising, Pt. 2 / Immovable

40. At the Speed of Force

41. My Broken Boy

42. That Terrible Strength

43. An Eternal Reoccurrence of Change

44. We Slay Ourselves

45. Your Own House Turned to Ashes

46. All of You Undisturbed Cities

47. The Art of Preserving Fire

48. The Crew at Warpower

49. The Foundation Theme

50. Batman, a Duty to Fight / To See

51. Batman, an Invocation to Heal / To Be Seen

52. Wonder Woman, a Call to Stand / A World Awakened

53. Flash, the Space to Win / Our Legacy Is Now

54. Hallelujah (Rose Betts)





Дополнительная информация: Лог проверки качества (DR)



foobar2000 1.5.4 / Dynamic Range Meter 1.1.1

log date: 2021-04-03 15:59:52



--------------------------------------------------------------------------------

Analyzed: Allison Crowe / Zack Snyder's Justice League (Original Motion Picture Soundtrack) (1)

Junkie XL / Zack Snyder's Justice League (Original Motion Picture Soundtrack) (2-53)

Rose Betts / Zack Snyder's Justice League (Original Motion Picture Soundtrack) (54)

--------------------------------------------------------------------------------



DR Peak RMS Duration Track

--------------------------------------------------------------------------------

DR8 -0.47 dB -12.55 dB 6:11 54-Hallelujah

DR8 -1.07 dB -15.10 dB 7:57 02-A Hunter Gathers

DR10 -2.97 dB -18.23 dB 0:57 03-Migratory

DR9 -1.26 dB -14.46 dB 1:04 04-Things Fall Apart

DR5 -1.09 dB -9.93 dB 7:20 05-Wonder Woman Defending / And What Rough Beast

DR5 -1.36 dB -11.34 dB 9:23 06-World Ending Fire

DR9 -1.27 dB -15.10 dB 1:18 07-Middle Mass

DR9 -1.26 dB -15.27 dB 1:13 08-Long Division

DR9 -0.84 dB -15.79 dB 4:11 09-No Paradise, No Fall

DR9 -1.25 dB -16.53 dB 8:56 10-The Center Will Not Hold, Twenty Centuries of Stony Sleep

DR9 -1.34 dB -14.38 dB 2:28 11-As Above, So Below

DR7 -0.07 dB -12.32 dB 8:14 12-No Dog, No Master

DR7 -1.22 dB -13.36 dB 1:44 13-Take This Kingdom by Force

DR11 -6.35 dB -24.51 dB 1:09 14-A Splinter from the Thorn That Pricked You

DR10 -1.30 dB -16.65 dB 10:35 15-Cyborg Becoming / Human All Too Human

DR4 -0.21 dB -8.17 dB 2:12 16-The Path Chooses You

DR7 -1.03 dB -13.01 dB 8:22 17-Aquaman Returning / Carry Your Own Water

DR6 -1.03 dB -11.07 dB 1:14 18-The Provenance of Something Gathered

DR5 -1.20 dB -9.60 dB 12:57 19-We Do This Together

DR6 -0.60 dB -11.51 dB 5:20 20-The Will to Power

DR7 -1.39 dB -13.11 dB 1:39 21-Smoke Become Fire

DR7 -1.26 dB -13.23 dB 4:19 22-I Teach You, the Overman

DR9 -1.35 dB -15.26 dB 1:01 23-A Glimmer at the Door of the Living

DR9 -1.23 dB -16.40 dB 1:43 24-How We Achieve Ourselves

DR8 -4.52 dB -18.53 dB 1:31 25-The Sun Forever Rising

DR6 -1.00 dB -11.11 dB 5:49 26-Underworld

DR11 -2.38 dB -20.11 dB 2:40 27-Superman Rising, Pt. 1 / A Book of Hours

DR6 -1.13 dB -11.41 dB 4:24 28-Beyond Good and Evil

DR9 -1.35 dB -14.97 dB 2:29 29-Monument Builder

DR6 -0.71 dB -10.67 dB 6:08 30-Monument Destroyer

DR13 -1.39 dB -19.74 dB 1:49 31-Urgrund

DR7 -1.11 dB -13.45 dB 4:49 32-So Begins the End

DR11 -6.13 dB -23.92 dB 2:37 33-The House of Belonging

DR9 -1.34 dB -15.96 dB 3:24 34-Earthling

DR6 -0.99 dB -11.41 dB 1:54 35-Flight Is Our Nature

DR9 -1.24 dB -14.52 dB 2:33 36-Indivisible

DR6 -1.20 dB -9.73 dB 5:22 37-And the Lion-Earth Did Roar, Pt. 1

DR6 -1.25 dB -9.49 dB 5:32 38-And the Lion-Earth Did Roar, Pt. 2

DR6 -0.66 dB -8.29 dB 1:55 39-Superman Rising, Pt. 2 / Immovable

DR7 -0.59 dB -11.07 dB 4:20 40-At the Speed of Force

DR9 -1.12 dB -16.63 dB 2:16 41-My Broken Boy

DR8 -1.28 dB -14.15 dB 1:51 42-That Terrible Strength

DR8 -1.26 dB -12.15 dB 1:45 43-An Eternal Reoccurrence of Change

DR9 -1.23 dB -15.76 dB 5:52 44-We Slay Ourselves

DR5 -0.78 dB -11.10 dB 3:16 45-Your Own House Turned to Ashes

DR7 -1.28 dB -13.02 dB 6:15 46-All of You Undisturbed Cities

DR9 -1.19 dB -16.44 dB 1:27 47-The Art of Preserving Fire

DR7 -0.70 dB -10.97 dB 6:49 48-The Crew at Warpower

DR5 -1.16 dB -10.10 dB 2:08 49-The Foundation Theme (from Zack Snyder's Justice League)

DR6 -0.43 dB -9.12 dB 5:30 50-Batman, a Duty to Fight / To See

DR7 -0.47 dB -9.95 dB 8:36 51-Batman, an Invocation to Heal / To Be Seen

DR6 -0.53 dB -8.38 dB 5:10 52-Wonder Woman, a Call to Stand / A World Awakened

DR5 -0.62 dB -9.02 dB 11:14 53-Flash, the Space to Win / Our Legacy Is Now

DR9 -2.10 dB -16.27 dB 3:17 01-Song to the Siren

--------------------------------------------------------------------------------



Number of tracks: 54

Official DR value: DR8



Samplerate: 44100 Hz

Channels: 2

Bits per sample: 16

Bitrate: 608 kbps

Codec: FLAC

================================================================================





Присоединяйся к/Join the:

Discussion

Comments 0

Post Your Comment

Files in this torrent

FILENAMESIZE
01. Song to the Siren.flac14.8 MB
02. A Hunter Gathers.flac37.4 MB
03. Migratory.flac4.1 MB
04. Things Fall Apart.flac6.2 MB
05. Wonder Woman Defending - And What Rough Beast.flac45.6 MB
06. World Ending Fire.flac48.4 MB
07. Middle Mass.flac6.5 MB
08. Long Division.flac4.9 MB
09. No Paradise, No Fall.flac18 MB
10. The Center Will Not Hold, Twenty Centuries of Stony Sleep.flac38.1 MB
11. As Above, So Below.flac11.3 MB
12. No Dog, No Master.flac41.7 MB
13. Take This Kingdom by Force.flac8.5 MB
14. A Splinter from the Thorn That Pricked You.flac3.8 MB
15. Cyborg Becoming - Human All Too Human.flac45.4 MB
16. The Path Chooses You.flac10.5 MB
17. Aquaman Returning - Carry Your Own Water.flac42.6 MB
18. The Provenance of Something Gathered.flac7.6 MB
19. We Do This Together.flac78.8 MB
20. The Will to Power.flac29.1 MB
21. Smoke Become Fire.flac5 MB
22. I Teach You, the Overman.flac19.5 MB
23. A Glimmer at the Door of the Living.flac4.2 MB
24. How We Achieve Ourselves.flac7.2 MB
25. The Sun Forever Rising.flac2.8 MB
26. Underworld.flac24.5 MB
27. Superman Rising, Pt. 1 - A Book of Hours.flac10.2 MB
28. Beyond Good and Evil.flac22.7 MB
29. Monument Builder.flac12.4 MB
30. Monument Destroyer.flac34.9 MB
31. Urgrund.flac7.6 MB
32. So Begins the End.flac24.2 MB
33. The House of Belonging.flac9.6 MB
34. Earthling.flac13.9 MB
35. Flight Is Our Nature.flac10.4 MB
36. Indivisible.flac13.4 MB
37. And the Lion-Earth Did Roar, Pt. 1.flac34.3 MB
38. And the Lion-Earth Did Roar, Pt. 2.flac36.9 MB
39. Superman Rising, Pt. 2 - Immovable.flac13.7 MB
40. At the Speed of Force.flac26.1 MB
41. My Broken Boy.flac10.9 MB
42. That Terrible Strength.flac9.4 MB
43. An Eternal Reoccurrence of Change.flac9.8 MB
44. We Slay Ourselves.flac24.2 MB
45. Your Own House Turned to Ashes.flac13.8 MB
46. All of You Undisturbed Cities.flac26 MB
47. The Art of Preserving Fire.flac5.9 MB
48. The Crew at Warpower.flac42.3 MB
49. The Foundation Theme (from Zack Snyder's Justice League).flac13.1 MB
50. Batman, a Duty to Fight - To See.flac38.9 MB
51. Batman, an Invocation to Heal - To Be Seen.flac56.5 MB
52. Wonder Woman, a Call to Stand - A World Awakened.flac36.7 MB
53. Flash, the Space to Win - Our Legacy Is Now.flac74.1 MB
54. Hallelujah.flac26.9 MB
cover.jpg517.8 KB
foo_dr.txt4.7 KB

Alternative Torrents for 'Tom Holkenborg Zack Snyder&;s Justice League'.

TORRENT NAMEADDEDSIZESEEDSPEERSHEALTH
4/13/2021541 MB00
4/3/20212.3 GB00
4/3/20211.2 GB00