Silicon Valley S02E08 PROPER 720p HDTV X264-KILLERS[rarbg]

Torrent Details

Silicon Valley S02E08 PROPER 720p HDTV x264<span style=color:#fc9c6d>-KILLERS[rarbg]</span>Silicon Valley S02E08 PROPER 720p HDTV x264<span style=color:#fc9c6d>-KILLERS[rarbg]</span>

NAME
Silicon Valley S02E08 PROPER 720p HDTV x264-KILLERS[rarbg].torrent
CATEGORY
Television
INFOHASH
5f99290aaf55a33271b9689b58cf3fcdbb977d77
SIZE
754 MB in 4 files
ADDED
Uploaded on 13-06-2015 by our crawler pet called "Spidey".
SWARM
0 seeders & 0 peers
RATING
No votes yet.

Please login to vote for this torrent.


Description

MediaInfo

Video
ID : 1
Format : AVC
Format/Info : Advanced Video Codec
Format profile : [email protected]
Format settings, CABAC : Yes
Format settings, ReFrames : 5 frames
Codec ID : V_MPEG4/ISO/AVC
Duration : 28mn 11s
Bit rate : 3 091 Kbps
Width : 1 280 pixels
Height : 720 pixels
Display aspect ratio : 16:9
Frame rate mode : Constant
Frame rate : 23.976 fps
Color space : YUV
Chroma subsampling : 4:2:0
Bit depth : 8 bits
Scan type : Progressive
Bits/(Pixel*Frame) : 0.140
Stream size : 623 MiB (87%)
Writing library : x264 core 146 r2538 121396c
Encoding settings : opencl=1 / cabac=1 / ref=5 / deblock=1:0:0 / analyse=0x3:0x113 / me=umh / subme=8 / psy=1 / psy_rd=1.00:0.00 / mixed_ref=1 / me_range=16 / chroma_me=1 / trellis=1 / 8x8dct=1 / cqm=0 / deadzone=21,11 / fast_pskip=1 / chroma_qp_offset=-2 / threads=24 / lookahead_threads=4 / sliced_threads=0 / nr=0 / decimate=1 / interlaced=0 / bluray_compat=0 / constrained_intra=0 / bframes=3 / b_pyramid=2 / b_adapt=2 / b_bias=0 / direct=3 / weightb=1 / open_gop=0 / weightp=2 / keyint=250 / keyint_min=23 / scenecut=40 / intra_refresh=0 / rc_lookahead=50 / rc=crf / mbtree=1 / crf=18.0 / qcomp=0.60 / qpmin=0 / qpmax=69 / qpstep=4 / ip_ratio=1.40 / aq=1:1.00
Language : English
Default : Yes
Forced : No
Color range : Limited
Matrix coefficients : BT.709

Audio
ID : 2
Format : AC-3
Format/Info : Audio Coding 3
Mode extension : CM (complete main)
Format settings, Endianness : Big
Codec ID : A_AC3
Duration : 28mn 12s
Bit rate mode : Constant
Bit rate : 384 Kbps
Channel(s) : 6 channels
Channel positions : Front: L C R, Side: L R, LFE
Sampling rate : 48.0 KHz
Bit depth : 16 bits
Compression mode : Lossy
Stream size : 77.5 MiB (11%)
Default : Yes
Forced : No

Discussion

Comments 0

Post Your Comment

Files in this torrent

FILENAMESIZE
RARBG.com.txt34 B
Sample/sample-silicon.valley.s02e08.proper.720p.hdtv.x264-killers.mkv39 MB
Silicon.Valley.S02E08.PROPER.720p.HDTV.x264-KILLERS.mkv715.2 MB
silicon.valley.s02e08.proper.720p.hdtv.x264-killers.nfo10.7 KB

Alternative Torrents for 'Silicon Valley PROPER'.

TORRENT NAMEADDEDSIZESEEDSPEERSHEALTH
11/15/2019547 MB00
11/15/2019244 MB00
11/15/2019337 MB00
11/15/20191.2 GB00
10/31/2019320 MB00
10/28/2019367 MB00
10/28/2019551 MB00
10/28/20191.2 GB00
10/28/2019156 MB00
10/28/2019547 MB00
10/28/2019547 MB00
10/28/20191.2 GB00
3/17/2018984 MB00
3/17/2018700 MB00
3/17/2018309 MB00