2 Broke Girls S04E22 And The Disappointing Unit 1080p WEB-DL DD 5.1 H 264-SA89[rarbg]

Torrent Details

2 Broke Girls S04E22 And the Disappointing Unit 1080p WEB-DL DD 5.1 H 264-SA89[rarbg]2 Broke Girls S04E22 And the Disappointing Unit 1080p WEB-DL DD 5.1 H 264-SA89[rarbg]

NAME
2 Broke Girls S04E22 And the Disappointing Unit 1080p WEB-DL DD 5.1 H 264-SA89[rarbg].torrent
CATEGORY
Television
INFOHASH
556257d8dbea14804a2fd3c192474f4c38d2e1f2
SIZE
847 MB in 3 files
ADDED
Uploaded on 13-06-2015 by our crawler pet called "Spidey".
SWARM
0 seeders & 0 peers
RATING
No votes yet.

Please login to vote for this torrent.


Description

MediaInfo

Video
ID : 1
Format : AVC
Format/Info : Advanced Video Codec
Format profile : [email protected]
Format settings, CABAC : Yes
Format settings, ReFrames : 4 frames
Codec ID : V_MPEG4/ISO/AVC
Duration : 21mn 38s
Bit rate : 4 979 Kbps
Width : 1 916 pixels
Height : 1 076 pixels
Display aspect ratio : 16:9
Frame rate mode : Constant
Frame rate : 23.976 fps
Color space : YUV
Chroma subsampling : 4:2:0
Bit depth : 8 bits
Scan type : Progressive
Bits/(Pixel*Frame) : 0.101
Stream size : 771 MiB (91%)
Language : English
Default : Yes
Forced : No
Color range : Limited
Color primaries : BT.709
Transfer characteristics : BT.709
Matrix coefficients : BT.709

Audio
ID : 2
Format : AC-3
Format/Info : Audio Coding 3
Mode extension : CM (complete main)
Format settings, Endianness : Big
Codec ID : A_AC3
Duration : 21mn 38s
Bit rate mode : Constant
Bit rate : 384 Kbps
Channel(s) : 6 channels
Channel positions : Front: L C R, Side: L R, LFE
Sampling rate : 48.0 KHz
Bit depth : 16 bits
Compression mode : Lossy
Stream size : 59.4 MiB (7%)
Language : English
Default : Yes
Forced : No

Text
ID : 3
Format : UTF-8
Codec ID : S_TEXT/UTF8
Codec ID/Info : UTF-8 Plain Text
Language : English
Default : No
Forced : No

Discussion

Comments 0

Post Your Comment

Files in this torrent

FILENAMESIZE
2.Broke.Girls.S04E22.And.the.Disappointing.Unit.1080p.WEB-DL.DD5.1.H.264-SA89.mkv847.1 MB
2.Broke.Girls.S04E22.And.the.Disappointing.Unit.1080p.WEB-DL.DD5.1.H.264-SA89.srt30.2 KB
RARBG.com.txt34 B

Alternative Torrents for 'Broke Girls And Disappointing Unit DD SA'.

There are no alternative torrents found.