Halt And Catch Fire S02E05 Extract And Defend 720p WEB-DL DD 5.1 H 264-QUEENS[rarbg]

Torrent Details

Halt and Catch Fire S02E05 Extract and Defend 720p WEB-DL DD 5.1 H 264-QUEENS[rarbg]Halt and Catch Fire S02E05 Extract and Defend 720p WEB-DL DD 5.1 H 264-QUEENS[rarbg]

NAME
Halt and Catch Fire S02E05 Extract and Defend 720p WEB-DL DD 5.1 H 264-QUEENS[rarbg].torrent
CATEGORY
Television
INFOHASH
e5b90188fead823fafc7cddb64fed27e4a0b6829
SIZE
1.3 GB in 3 files
ADDED
Uploaded on 30-06-2015 by our crawler pet called "Spidey".
SWARM
0 seeders & 0 peers
RATING
No votes yet.

Please login to vote for this torrent.


Description

Video
ID : 1
Format : AVC
Format/Info : Advanced Video Codec
Format profile : [email protected]
Format settings, CABAC : No
Format settings, ReFrames : 2 frames
Codec ID : V_MPEG4/ISO/AVC
Duration : 42mn 58s
Bit rate : 3 831 Kbps
Width : 1 280 pixels
Height : 718 pixels
Display aspect ratio : 16:9
Frame rate mode : Constant
Frame rate : 23.976 fps
Color space : YUV
Chroma subsampling : 4:2:0
Bit depth : 8 bits
Scan type : Progressive
Bits/(Pixel*Frame) : 0.174
Stream size : 1.15 GiB (89%)
Language : English
Default : Yes
Forced : No
Color range : Limited
Color primaries : BT.709
Transfer characteristics : BT.709
Matrix coefficients : BT.709

Audio
ID : 2
Format : AC-3
Format/Info : Audio Coding 3
Mode extension : CM (complete main)
Format settings, Endianness : Big
Codec ID : A_AC3
Duration : 42mn 58s
Bit rate mode : Constant
Bit rate : 384 Kbps
Channel(s) : 6 channels
Channel positions : Front: L C R, Side: L R, LFE
Sampling rate : 48.0 KHz
Compression mode : Lossy
Stream size : 118 MiB (9%)
Language : English
Default : Yes
Forced : No

Discussion

Comments 0

Post Your Comment

Files in this torrent

FILENAMESIZE
Halt.and.Catch.Fire.S02E05.Extract.and.Defend.720p.WEB-DL.DD5.1.H.264-QUEENS.mkv1.3 GB
Halt.and.Catch.Fire.S02E05.Extract.and.Defend.720p.WEB-DL.DD5.1.H.264-QUEENS.srt61.6 KB
RARBG.com.txt34 B

Alternative Torrents for 'Halt and Catch Fire Extract and Defend DD QUEENSrarbg'.

TORRENT NAMEADDEDSIZESEEDSPEERSHEALTH
9/18/2020892 MB820150
9/18/20201.8 GB66097
9/24/2020696 MB498106
9/18/2020796 MB461101
9/14/2020796 MB33468
9/11/20203.5 GB28331
9/22/2020680 MB2828
9/21/20201.2 GB25397
Yesterday1.1 GB18950
9/24/2020686 MB17462
9/24/20206.6 GB16583
9/21/20201.1 GB14529
9/18/20201.9 GB13961
9/12/20202.2 GB13747
Today941 MB13175