2Pac, Eminem - Bullet To The Brain (Lyric Video)

Torrent Details

2Pac, Eminem - Bullet To The Brain (Lyric Video)2Pac, Eminem - Bullet To The Brain (Lyric Video)

NAME
2Pac, Eminem - Bullet To The Brain (Lyric Video).torrent
CATEGORY
Movies
INFOHASH
09f9bda258745e4ef683a46f88768adb8b515370
SIZE
63 MB in 1 file
ADDED
Uploaded on 08-07-2015 by our crawler pet called "Spidey".
SWARM
0 seeders & 0 peers
RATING
No votes yet.

Please login to vote for this torrent.


Description

General
Complete name : 2Pac, Eminem - Bullet To The Brain (Lyric Video).mp4
Format : MPEG-4
Format profile : Base Media / Version 2
Codec ID : mp42
File size : 62.6 MiB
Duration : 3mn 26s
Overall bit rate mode : Variable
Overall bit rate : 2 543 Kbps
Encoded date : UTC 2015-02-20 13:21:35
Tagged date : UTC 2015-02-20 13:21:35
gsst : 0
gstd : 206586
gssd : BAF654505MM1424448527107527
gshh : r2---sn-xmjxaahxqp5-8b5e.googlevideo.com

Video
ID : 1
Format : AVC
Format/Info : Advanced Video Codec
Format profile : High@L3.1
Format settings, CABAC : Yes
Format settings, ReFrames : 1 frame
Format settings, GOP : M=1, N=60
Codec ID : avc1
Codec ID/Info : Advanced Video Coding
Duration : 3mn 26s
Bit rate : 2 348 Kbps
Maximum bit rate : 5 138 Kbps
Width : 1 280 pixels
Height : 720 pixels
Display aspect ratio : 16:9
Frame rate mode : Constant
Frame rate : 29.970 fps
Color space : YUV
Chroma subsampling : 4:2:0
Bit depth : 8 bits
Scan type : Progressive
Bits/(Pixel*Frame) : 0.085
Stream size : 57.8 MiB (92%)
Encoded date : UTC 1970-01-01 00:00:00
Tagged date : UTC 2015-02-20 13:21:37

Audio
ID : 2
Format : AAC
Format/Info : Advanced Audio Codec
Format profile : LC
Codec ID : 40
Duration : 3mn 26s
Bit rate mode : Variable
Bit rate : 192 Kbps
Maximum bit rate : 202 Kbps
Channel(s) : 2 channels
Channel positions : Front: L R
Sampling rate : 44.1 KHz
Compression mode : Lossy
Stream size : 4.73 MiB (8%)
Title : IsoMedia File Produced by Google, 5-11-2011
Encoded date : UTC 2015-02-20 13:21:36
Tagged date : UTC 2015-02-20 13:21:37

Discussion

Comments 0

Post Your Comment

Files in this torrent

FILENAMESIZE
2Pac, Eminem - Bullet To The Brain (Lyric Video).mp462.6 MB

Alternative Torrents for 'Pac Eminem Bullet To Brain Lyric Video'.

There are no alternative torrents found.