Hercules And The Circle Of Fire (1994)

Torrent Details

Hercules and the Circle of Fire (1994)

NAME
Hercules and the Circle of Fire (1994).torrent
CATEGORY
Movies
INFOHASH
8fff3fae6eb74ef59c5b17f2c11ba26f7458a7a1
SIZE
1.3 GB in 1 file
ADDED
Uploaded on 24-07-2015 by our crawler pet called "Spidey".
SWARM
0 seeders & 0 peers
RATING
No votes yet.

Please login to vote for this torrent.


Description


Movie Info

In the third of five made-for-TV movies starring Kevin Sorbo as legendary superhero Hercules, the Earth is in danger of turning into a block of ice unless the fires of the world can be rekindled. This calamitous situation is the handiwork of Hercules' treacherous stepmother Hera, in whose immortal hands the Eternal Torch has been passed. To retrieve this valuable flame and save Mankind, Hercules must do battle with a giant, a duplicitous wood sprite and his own Olympian father Zeus

Format : MPEG-4
Format profile : Base Media / Version 2
Codec ID : mp42
File size : 1.26 GiB
Duration : 1h 30mn
Overall bit rate : 1 992 Kbps
Encoded date : UTC 2014-08-29 09:09:18
Tagged date : UTC 2014-08-29 09:50:06
Writing application : HandBrake 0.9.9 2013052900

Video
ID : 1
Format : AVC
Format/Info : Advanced Video Codec
Format profile : [email protected]
Format settings, CABAC : Yes
Format settings, ReFrames : 4 frames
Codec ID : avc1
Codec ID/Info : Advanced Video Coding
Duration : 1h 30mn
Bit rate : 1 540 Kbps
Width : 720 pixels
Height : 488 pixels
Display aspect ratio : 4:3
Original display aspect ratio : 4:3
Frame rate mode : Variable
Frame rate : 27.769 fps
Minimum frame rate : 19.969 fps
Maximum frame rate : 29.970 fps
Color space : YUV
Chroma subsampling : 4:2:0
Bit depth : 8 bits
Scan type : Progressive
Bits/(Pixel*Frame) : 0.158
Stream size : 998 MiB (77%)
Writing library : x264 core 130 r2273 b3065e6
Encoded date : UTC 2014-08-29 09:09:18
Tagged date : UTC 2014-08-29 09:50:06
Color primaries : BT.601 NTSC
Transfer characteristics : BT.709
Matrix coefficients : BT.601

Audio
ID : 2
Format : AC-3
Format/Info : Audio Coding 3
Mode extension : CM (complete main)
Format settings, Endianness : Big
Codec ID : ac-3
Duration : 1h 30mn
Bit rate mode : Constant
Bit rate : 448 Kbps
Channel(s) : 6 channels
Channel positions : Front: L C R, Side: L R, LFE
Sampling rate : 48.0 KHz
Bit depth : 16 bits
Compression mode : Lossy
Stream size : 290 MiB (22%)
Language : English
Encoded date : UTC 2014-08-29 09:09:18
Tagged date : UTC 2014-08-29 09:50:05

Discussion

Comments 0

Post Your Comment

Files in this torrent

FILENAMESIZE
Hercules and the Circle of Fire (1994).mp41.3 GB

Alternative Torrents for 'Hercules and Circle of Fire'.

TORRENT NAMEADDEDSIZESEEDSPEERSHEALTH
7/24/20151.3 GB00