Happi End AVC KPK GF

Torrent Details


Happi End AVC KPK GF

NAME
Happi End AVC KPK GF.torrent
CATEGORY
Television
INFOHASH
ebb99c8f8f07567966f3f474fe32dd7ba72338d1
SIZE
1.3 GB in 8 files
ADDED
Uploaded on 22-05-2021 by our crawler pet called "Spidey".
SWARM
0 seeders & 0 peers
RATING
No votes yet.

Please login to vote for this torrent.


Description

Информация о фильме

Оригинальное название: Happy End

Год выпуска: 2021

Жанр: Драма, комедия, эротика

Режиссер: Евгений Сангаджиев

В ролях: Лена Тронина, Денис Власенко, Александр Горчилин, Любовь Толкалина, Даниил Воробьёв, Лукерья Ильяшенко, Алексей Агранович, Дарья Фекленко, Максим Карушев, Евгения Добровольская, Александра Ребенок, Никита Еленев, Евгения Афонская, Олег Евтеев, Алексей Макаров



О сериале:

Попасть в мир Webcam просто: достаточно нажать кнопку REC. в своем мобильном и начать снимать. С такого видео и начинается карьера 19-летних Леры и Влада, которые в поисках лучшей жизни и легких денег приходят к неожиданному решению — вебкам. Они совсем не подходят друг другу, их характеры противоположны, а ценности не совпадают: Лера — безрассудная оторва, которая легко идет по головам, Влад — замкнутый умник, готовый на все ради подруги. Но странным образом они дополняют друг друга, и, вместе преодолевая препятствия на пути к успеху, взрослеют и становятся все ближе. Но можно ли сохранить любовь, когда вся твоя личная жизнь — сплошное порно?







Страна: Россия

Студия: More originals, Студия «Видеопрокат», НМГ Студия

Продолжительность: 8 x ~ 00:40:00

Перевод: Не требуется



Файл

Формат: MP4

Качество: WEB-DLRip-AVC

Видео: MPEG-4 AVC (x264), 640x272, ~ 500 kbps, 25.000 fps

Аудио: AAC LC, 48.0 KHz, 2 ch, 128 Kbps

Субтитры: Нет



Внимание! Присутствуют сцены сексуального характера.



Семпл



Скриншоты

MIComplete name : F:КИНОHappi.End.AVC.KPK.GFHappi.End.S01.2020.WEB-DLRip-AVC.KPK.GFHappi.End.s01e01.2020.WEB-DLRip-AVC.KPK.GF.mp4

Format : MPEG-4

Codec ID : M4V (isom/iso2/avc1)

File size : 183 MiB

Duration : 40 min 25 s

Overall bit rate mode : Variable

Overall bit rate : 634 kb/s

Writing application : Lavf53.19.0



Video

ID : 1

Format : AVC

Format/Info : Advanced Video Codec

Format profile : [email protected]

Format settings, CABAC : Yes

Format settings, RefFrames : 8 frames

Codec ID : avc1

Codec ID/Info : Advanced Video Coding

Duration : 40 min 25 s

Bit rate : 500 kb/s

Width : 640 pixels

Height : 272 pixels

Display aspect ratio : 2.35:1

Frame rate mode : Constant

Frame rate : 25.000 FPS

Color space : YUV

Chroma subsampling : 4:2:0

Bit depth : 8 bits

Scan type : Progressive

Bits/(Pixel*Frame) : 0.115

Stream size : 145 MiB (79%)

Writing library : x264 core 148 r2638 7599210

Encoding settings : cabac=1 / ref=8 / deblock=1:-1:-1 / analyse=0x3:0x133 / me=umh / subme=10 / psy=1 / psy_rd=1.00:0.00 / mixed_ref=1 / me_range=24 / chroma_me=1 / trellis=2 / 8x8dct=1 / cqm=0 / deadzone=21,11 / fast_pskip=1 / chroma_qp_offset=-2 / threads=6 / lookahead_threads=1 / sliced_threads=0 / nr=0 / decimate=1 / interlaced=0 / bluray_compat=0 / constrained_intra=0 / bframes=8 / b_pyramid=2 / b_adapt=2 / b_bias=0 / direct=3 / weightb=1 / open_gop=0 / weightp=2 / keyint=250 / keyint_min=126 / scenecut=40 / intra_refresh=0 / rc_lookahead=40 / rc=2pass / mbtree=1 / bitrate=500 / ratetol=1.0 / qcomp=0.60 / qpmin=0 / qpmax=69 / qpstep=4 / cplxblur=20.0 / qblur=0.5 / ip_ratio=1.40 / aq=1:1.00

Menus : 3



Audio

ID : 2

Format : AAC

Format/Info : Advanced Audio Codec

Format profile : LC

Codec ID : 40

Duration : 40 min 25 s

Bit rate mode : Variable

Bit rate : 128 kb/s

Channel(s) : 2 channels

Channel positions : Front: L R

Sampling rate : 48.0 kHz

Frame rate : 46.875 FPS (1024 SPF)

Compression mode : Lossy

Stream size : 37.0 MiB (20%)

Default : Yes

Alternate group : 1

Menus : 3



Релиз от:

Discussion

Comments 0

Post Your Comment

Files in this torrent

FILENAMESIZE
Happi.End.S01.2020.WEB-DLRip-AVC.KPK.GF/Happi.End.s01e01.2020.WEB-DLRip-AVC.KPK.GF.mp4183.3 MB
Happi.End.S01.2020.WEB-DLRip-AVC.KPK.GF/Happi.End.s01e02.2020.WEB-DLRip-AVC.KPK.GF.mp4188.2 MB
Happi.End.S01.2020.WEB-DLRip-AVC.KPK.GF/Happi.End.s01e03.2020.WEB-DLRip-AVC.KPK.GF.mp4151 MB
Happi.End.S01.2020.WEB-DLRip-AVC.KPK.GF/Happi.End.s01e04.2020.WEB-DLRip-AVC.KPK.GF.mp4152.3 MB
Happi.End.S01.2020.WEB-DLRip-AVC.KPK.GF/Happi.End.s01e05.2020.WEB-DLRip-AVC.KPK.GF.mp4167.2 MB
Happi.End.S01.2020.WEB-DLRip-AVC.KPK.GF/Happi.End.s01e06.2020.WEB-DLRip-AVC.KPK.GF.mp4168 MB
Happi.End.S01.2020.WEB-DLRip-AVC.KPK.GF/Happi.End.s01e07.2020.WEB-DLRip-AVC.KPK.GF.mp4175.2 MB
Happi.End.S01.2020.WEB-DLRip-AVC.KPK.GF/Happi.End.s01e08.2020.WEB-DLRip-AVC.KPK.GF.mp4193.8 MB

Alternative Torrents for 'Happi End AVC KPK GF'.

TORRENT NAMEADDEDSIZESEEDSPEERSHEALTH
5/22/20211.3 GB00