Desi Indian Epic POV Deepthroat Blowjob Cumshot Cover Facial

Torrent Details

Desi Indian Epic POV Deepthroat Blowjob Cumshot Cover FacialDesi Indian Epic POV Deepthroat Blowjob Cumshot Cover Facial

NAME
Desi Indian Epic POV Deepthroat Blowjob Cumshot Cover Facial.torrent
CATEGORY
Adult
INFOHASH
1d70b800d9f008d6a938a8d661a6c04c149329bd
SIZE
25 MB in 1 file
ADDED
Uploaded on 09-10-2015 by our crawler pet called "Spidey".
SWARM
0 seeders & 0 peers
RATING
No votes yet.

Please login to vote for this torrent.


Description

Desi Indian Epic POV Deepthroat Blowjob Cumshot Cover Facial.avi

Screens:
http://imgdetop.com/img-54bae6240deaa.html
http://imgdetop.com/img-54bae62413994.html
http://imgdetop.com/img-54bae624177a3.html

MediaInfo:
Format : AVI
Format/Info : Audio Video Interleave
File size : 25.1 MiB
Duration : 4mn 48s
Overall bit rate : 729 Kbps
Writing application : Lavf55.44.100

Video
ID : 0
Format : MPEG-4 Visual
Format profile : [email protected]
Format settings, BVOP : No
Format settings, QPel : No
Format settings, GMC : No warppoints
Format settings, Matrix : Default (H.263)
Codec ID : XVID
Codec ID/Hint : XviD
Duration : 4mn 48s
Bit rate : 587 Kbps
Width : 426 pixels
Height : 240 pixels
Display aspect ratio : 16:9
Frame rate : 29.970 fps
Color space : YUV
Chroma subsampling : 4:2:0
Bit depth : 8 bits
Scan type : Progressive
Compression mode : Lossy
Bits/(Pixel*Frame) : 0.191
Stream size : 20.2 MiB (80%)
Writing library : Lavc55.67.100

Audio
ID : 1
Format : MPEG Audio
Format version : Version 1
Format profile : Layer 3
Mode : Joint stereo
Mode extension : MS Stereo
Codec ID : 55
Codec ID/Hint : MP3
Duration : 4mn 48s
Bit rate mode : Constant
Bit rate : 128 Kbps
Channel(s) : 2 channels
Sampling rate : 48.0 KHz
Compression mode : Lossy
Stream size : 4.41 MiB (18%)
Alignment : Aligned on interleaves
Interleave, duration : 24 ms (0.72 video frame)
Interleave, preload duration : 72 ms
Writing library : LAME3.99.5

Discussion

Comments 0

Post Your Comment

Files in this torrent

FILENAMESIZE
Desi Indian Epic POV Deepthroat Blowjob Cumshot Cover Facial.avi25.1 MB

Alternative Torrents for 'Desi Indian Epic POV Deepthroat Blowjob Cumshot Cover Facial'.

TORRENT NAMEADDEDSIZESEEDSPEERSHEALTH
10/9/201525 MB00