Wrath Of Man 2021 DUB WEB-DLRip-AVC [wolf1245 MediaBit]

Torrent Details


Wrath of man 2021 DUB WEB-DLRip-AVC [wolf1245 MediaBit]

NAME
Wrath of man 2021 DUB WEB-DLRip-AVC [wolf1245 MediaBit].torrent
CATEGORY
Movies
INFOHASH
cc282afde5e7625075d9b1349535c256636e3a06
SIZE
2 GB in 1 file
ADDED
Uploaded on 28-05-2021 by our crawler pet called "Spidey".
SWARM
1207 seeders & 25 peers
RATING
No votes yet.

Please login to vote for this torrent.


Description

Гнев человеческий / Wrath of man







Информация о фильме:

Название: Гнев человеческий

Оригинальное название: Wrath of man

Год выхода: 2021

Жанр: Боевик, триллер

Режиссер: Гай Ричи

В ролях: Джейсон Стэйтем, Холт МакКэллани, Джеффри Донован, Джош Хартнетт, Лаз Алонсо, Алекс Фернс, Рауль Кастильо, Деобиа Опарей, Скотт Иствуд, Нив Алгар



Описание: Эйч — загадочный и холодный на вид джентльмен, но внутри него пылает жажда справедливости. Преследуя свои мотивы, он внедряется в инкассаторскую компанию, чтобы выйти на соучастников серии многомиллионных ограблений, потрясших Лос-Анджелес. В этой запутанной игре у каждого своя роль, но под подозрением оказываются все. Виновных же обязательно постигнет гнев человеческий.







Страна: Великобритания, США

Студия: CAA Media Finance, Flic Films UK, Metro-Goldwyn-Mayer (MGM), Miramax Films, Toff Guy Films

Продолжительность: 01:58:57

Перевод: Профессиональный (полное дублирование) - Line







Информация о файле:

Кодек: AVC

Формат: MKV

Качество: WEB-DLRip-AVC

Видео: MPEG-4 AVC, 1024x428, 23.976 fps, 1762 kbps

Аудио RU: AC3, 2 ch, 48 kHz, 256 kbps | Tnx.KinoPub

Аудио EN: AC3, 6 ch, 48 kHz, 448 kbps

Субтитры: Английские

Навигация по главам: Нет







Скриншоты

MediaInfox264 info: frame I:1427 Avg QP:13.70 size: 69346

x264 info: frame P:41904 Avg QP:16.99 size: 20176

x264 info: frame B:127775 Avg QP:20.43 size: 4908

General

Unique ID : 240065705777766068674087944799442334172 (0xB49AF91F8ED373A6A10A756A406271DC)

Complete name : D:uTorrentРипы_от_wolf1245_MediaBitWrath.of.man.2021.DUB.WEB-DLRip-AVC.[wolf1245.MediaBit].mkv

Format : Matroska

Format version : Version 4

File size : 2.05 GiB

Duration : 1 h 58 min

Overall bit rate : 2 468 kb/s

Movie name : Wrath.of.man.2021.DUB.WEB-DLRip-AVC.[wolf1245.MediaBit]

Encoded date : UTC 2021-05-28 20:58:29

Writing application : mkvmerge v57.0.0 ('Till The End') 64-bit

Writing library : libebml v1.4.2 + libmatroska v1.6.4



Video

ID : 1

Format : AVC

Format/Info : Advanced Video Codec

Format profile : [email protected]

Format settings : CABAC / 14 Ref Frames

Format settings, CABAC : Yes

Format settings, Reference frames : 14 frames

Codec ID : V_MPEG4/ISO/AVC

Duration : 1 h 58 min

Bit rate : 1 762 kb/s

Width : 1 024 pixels

Height : 428 pixels

Display aspect ratio : 2.40:1

Frame rate mode : Constant

Frame rate : 23.976 (24000/1001) FPS

Color space : YUV

Chroma subsampling : 4:2:0

Bit depth : 8 bits

Scan type : Progressive

Bits/(Pixel*Frame) : 0.168

Stream size : 1.46 GiB (71%)

Title : .[wolf1245.MediaBit]

Writing library : x264 core 157 r2958 57baac4

Encoding settings : cabac=1 / ref=14 / deblock=1:-2:-2 / analyse=0x3:0x133 / me=umh / subme=11 / psy=1 / psy_rd=1.00:0.07 / mixed_ref=1 / me_range=48 / chroma_me=1 / trellis=2 / 8x8dct=1 / cqm=0 / deadzone=21,11 / fast_pskip=1 / chroma_qp_offset=-3 / threads=10 / lookahead_threads=2 / sliced_threads=0 / nr=0 / decimate=1 / interlaced=0 / bluray_compat=0 / constrained_intra=0 / bframes=12 / b_pyramid=2 / b_adapt=2 / b_bias=0 / direct=3 / weightb=1 / open_gop=0 / weightp=2 / keyint=240 / keyint_min=24 / scenecut=40 / intra_refresh=0 / rc_lookahead=60 / rc=2pass / mbtree=1 / bitrate=1762 / ratetol=1.0 / qcomp=0.60 / qpmin=0 / qpmax=69 / qpstep=4 / cplxblur=20.0 / qblur=0.5 / vbv_maxrate=50000 / vbv_bufsize=62500 / nal_hrd=none / filler=0 / ip_ratio=1.40 / aq=1:0.80

Language : English

Default : Yes

Forced : No

Color range : Limited

Color primaries : BT.709

Transfer characteristics : BT.709

Matrix coefficients : BT.709



Audio #1

ID : 2

Format : AC-3

Format/Info : Audio Coding 3

Commercial name : Dolby Digital

Codec ID : A_AC3

Duration : 1 h 58 min

Bit rate mode : Constant

Bit rate : 256 kb/s

Channel(s) : 2 channels

Channel layout : L R

Sampling rate : 48.0 kHz

Frame rate : 31.250 FPS (1536 SPF)

Bit depth : 16 bits

Compression mode : Lossy

Stream size : 218 MiB (10%)

Title : [DUB] Line

Language : Russian

Service kind : Complete Main

Default : Yes

Forced : No



Audio #2

ID : 3

Format : AC-3

Format/Info : Audio Coding 3

Commercial name : Dolby Digital

Codec ID : A_AC3

Duration : 1 h 58 min

Bit rate mode : Constant

Bit rate : 448 kb/s

Channel(s) : 6 channels

Channel layout : L R C LFE Ls Rs

Sampling rate : 48.0 kHz

Frame rate : 31.250 FPS (1536 SPF)

Bit depth : 16 bits

Compression mode : Lossy

Stream size : 381 MiB (18%)

Title : Original

Language : English

Service kind : Complete Main

Default : No

Forced : No



Text

ID : 4

Format : UTF-8

Codec ID : S_TEXT/UTF8

Codec ID/Info : UTF-8 Plain Text

Duration : 1 h 50 min

Bit rate : 70 b/s

Count of elements : 1990

Stream size : 56.8 KiB (0%)

Title : English

Language : English

Default : No

Forced : No







Релиз от: &



Автор релиза:

Discussion

Comments 0

Post Your Comment

Files in this torrent

FILENAMESIZE
Wrath.of.man.2021.DUB.WEB-DLRip-AVC.[wolf1245.MediaBit].mkv2.1 GB

Alternative Torrents for 'Wrath of man DUB DLRipAVC wolf MediaBit'.

There are no alternative torrents found.