Hawaii Five-0 S06E03 720p WEB-DL DD 5.1 H 264-KiNGS[rarbg]

Torrent Details

Hawaii Five-0 S06E03 720p WEB-DL DD 5.1 H 264<span style=color:#fc9c6d>-KiNGS[rarbg]</span>

NAME
Hawaii Five-0 S06E03 720p WEB-DL DD 5.1 H 264-KiNGS[rarbg].torrent
CATEGORY
Television
INFOHASH
a087027499a171203b52a0c166c9e8fb08a7a196
SIZE
1.4 GB in 3 files
ADDED
Uploaded on 18-10-2015 by our crawler pet called "Spidey".
SWARM
0 seeders & 0 peers
RATING
No votes yet.

Please login to vote for this torrent.


Description

https://rarbg.to
Hawaii.Five-0.S06E03.720p.WEB-DL.DD5.1.H.264-KiNGS[rartv]

Screens :


Mediainfo :

Video
ID : 1
Format : AVC
Format/Info : Advanced Video Codec
Format profile : [email protected]
Format settings, CABAC : No
Format settings, ReFrames : 2 frames
Codec ID : V_MPEG4/ISO/AVC
Duration : 44mn 11s
Bit rate : 3 936 Kbps
Width : 1 280 pixels
Height : 720 pixels
Display aspect ratio : 16:9
Frame rate mode : Constant
Frame rate : 23.976 fps
Color space : YUV
Chroma subsampling : 4:2:0
Bit depth : 8 bits
Scan type : Progressive
Bits/(Pixel*Frame) : 0.178
Stream size : 1.21 GiB (89%)
Language : English
Default : Yes
Forced : No
Color range : Limited
Color primaries : BT.709
Transfer characteristics : BT.709
Matrix coefficients : BT.709

Audio
ID : 2
Format : AC-3
Format/Info : Audio Coding 3
Mode extension : CM (complete main)
Format settings, Endianness : Big
Codec ID : A_AC3
Duration : 44mn 11s
Bit rate mode : Constant
Bit rate : 384 Kbps
Channel(s) : 6 channels
Channel positions : Front: L C R, Side: L R, LFE
Sampling rate : 48.0 KHz
Compression mode : Lossy
Stream size : 121 MiB (9%)
Language : English
Default : Yes
Forced : No

Text
ID : 3
Format : UTF-8
Codec ID : S_TEXT/UTF8
Codec ID/Info : UTF-8 Plain Text
Default : Yes
Forced : No

Discussion

Comments 0

Post Your Comment

Files in this torrent

FILENAMESIZE
Hawaii.Five-0.S06E03.720p.WEB-DL.DD5.1.H.264-KiNGS.mkv1.4 GB
Hawaii.Five-0.S06E03.720p.WEB-DL.DD5.1.H.264-KiNGS.srt69.4 KB
RARBG.com.txt34 B

Alternative Torrents for 'Hawaii Five DD'.

TORRENT NAMEADDEDSIZESEEDSPEERSHEALTH
11/11/20181.4 GB00
11/10/20183.9 GB00
11/10/20181.4 GB00