Indiana Jones And The Temple Of Doom 1984 BDRemux 2160p HDR DV By DVT

Torrent Details


Indiana Jones and the Temple of Doom<span style=color:#777> 1984</span> BDRemux 2160p HDR DV by DVT

NAME
Indiana Jones and the Temple of Doom 1984 BDRemux 2160p HDR DV by DVT.torrent
CATEGORY
Movies
INFOHASH
8af9b57caed4772ce56dc33f3dd49f71aafc1f1c
SIZE
60.4 GB in 1 file
ADDED
Uploaded on 06-06-2021 by our crawler pet called "Spidey".
SWARM
0 seeders & 0 peers
RATING
No votes yet.

Please login to vote for this torrent.


Description





Информация о фильме

Название: Индиана Джонс и Храм Судьбы

Оригинальное название: Indiana Jones and the Temple of Doom

Год выхода: 1984

Жанр: Боевик, приключения

Режиссер: Стивен Спилберг

В ролях: Харрисон Форд, Кейт Кэпшоу, Джонатан Ке Кван, Амриш Пури, Рошан Сет, Филип Стоун, Рой Чяо, Дэвид Ип, Рик Янг, Цзю Чуака, Рекс Нгуи, Филип Тан, Дэн Эйкройд, Майкл Яма, Д.Р. Нанаяккара, Дармадаса Куруппу, Стани Де Силва, Руби Де Мэл, Ди.М. Динуэйк, Ирангэни Серасинг, Даршана Панангала, Радж Синх



О фильме:

Вторая часть невероятных похождений прославленного археолога и искателя приключений Индианы Джонса. В этот раз бесстрашный доктор Джонс совершит путешествие в сердце Гималаев вместе с ресторанной певичкой Уилли Скотт и своим верным маленьким помощником Коротышкой. Здесь, среди величественных гор, археологу и его спутникам предстоит столкнуться кровавым культом поклонения древней Богине Смерти — Кали. Станет ли Индиана следующим несчастным, погибшим на жутком алтаре человеческих жертвоприношений, или ему, как всегда, удастся вырваться из цепких лап страха и разобраться со злодеями.







Страна: США

Студия: Lucasfilm Ltd., Paramount Pictures

Продолжительность: 01:58:28

Перевод: Профессиональный многоголосый/двухголосый, авторский одноголосый



Файл

Формат: MKV

Кодек: H.265

Качество: UHD BDRemux 2160p

Видео: HEVC HDR, Dolby Vision Profile 8, 53,7 Mбит/с, 3840x2160, 23.976 кадр/с

Звук:

Аудио #1 Русский: AC3, 48.0 kHz, 2.0 ch, 224 Kbps | [Blu-ray EUR]

Аудио #2 Русский: DTS-HD MA 48.0 kHz, 5.1 ch, 4353 Kbps | [Киномания]

Аудио #3 Русский: DTS-HD MA 48.0 kHz, 5.1 ch, 4343 Kbps | [Гланц и Лютая]

Аудио #4 Русский: DTS-HD MA 48.0 kHz, 5.1 ch, 4354 Kbps | [Карусель]

Аудио #5 Русский: AC3, 48.0 kHz, 48.0 kHz, 5.1 ch, 448 Kbps | [НТВ+]

Аудио #6 Русский: AC3, 48.0 kHz, 48.0 kHz, 2.0 ch, 192 Kbps | [Премьер-Видео]

Аудио #7 Русский: AC3, 48.0 kHz, 48.0 kHz, 2.0 ch, 192 Kbps | [MVO,R5]

Аудио #8 Украинский: AC3, 48.0 kHz, 2.0 ch, 192 Kbps | [ICTV]

Аудио #9 English: Dolby TrueHD with Atmos, 48.0 kHz, 7.1 ch, 4320 Kbps

Субтитры: Русские, английские



Дополнительная информация:

Данный вид релизов в MKV сделан в 8-м профиле Dolby Vision для воспроизведении на устройствах с поддержкой DV. Протестировано на тв-боксах Nvidia Shield 2019, Zidoo Z1000 Pro, Ugoos AM6+, TiVo Stream 4K. Не точно подтверждено воспроизведение на телевизорах Sony XG/XH и Phillips. На устройствах без поддержки Dolby Vision будет играть обычный HDR10.

Программные плееры для воспроизведения в DV(на поддерживаемых устройствах): Vimu Player 8.8.8(и выше), Kodi 19(специальная сборка с поддержкой DV), ExoPlayer, JustPlayer.



Mediainfo

Общее

Уникальный идентификатор : 330974934937987620935893831363344472345 (0xF8FF742C7D8714BF46C892AD91FC1919)

Полное имя : Slid-NASFilmsIndiana.Jones.and.the.Temple.of.Doom.1984.BDRemux.2160p.HDR.DV.by.DVT.mkv

Формат : Matroska

Версия формата : Version 2

Размер файла : 60,4 Гбайт

Продолжительность : 1 ч. 58 м.

Режим общего битрейта : Переменный

Общий поток : 72,9 Мбит/сек

Название фильма : Indiana Jones and the Temple of Doom (1984). Release by Dolby Vision Torrents

Дата кодирования : UTC 2021-06-06 16:41:19

Программа кодирования : MakeMKV v1.16.1 win(x64-release)

Библиотека кодирования : libmakemkv v1.16.1 (1.3.10/1.5.2) win(x64-release)



Видео

Идентификатор : 1

Формат : HEVC

Формат/Информация : High Efficiency Video Coding

Профиль формата : Main 10@L5.1@High

HDR format : Dolby Vision, Version 1.0, dvhe.08.06, BL+RPU, Blu-ray compatible / SMPTE ST 2086, HDR10 compatible

Идентификатор кодека : V_MPEGH/ISO/HEVC

Продолжительность : 1 ч. 58 м.

Битрейт : 53,7 Мбит/сек

Ширина : 3 840 пикселей

Высота : 2 160 пикселей

Соотношение сторон : 16:9

Режим частоты кадров : Постоянный

Частота кадров : 23,976 (24000/1001) кадра/сек

Цветовое пространство : YUV

Субдискретизация насыщенности : 4:2:0 (Type 2)

Битовая глубина : 10 бит

Бит/(Пиксели*Кадры) : 0.270

Размер потока : 44,4 Гбайт (74%)

Язык : English

Default : Нет

Forced : Нет

Цветовой диапазон : Limited

Основные цвета : BT.2020

Характеристики трансфера : PQ

Коэффициенты матрицы : BT.2020 non-constant

Mastering display color primaries : Display P3

Mastering display luminance : min: 0.0050 cd/m2, max: 4000 cd/m2

Maximum Content Light Level : 1000 cd/m2

Maximum Frame-Average Light Level : 346 cd/m2



Аудио #1

Идентификатор : 2

ID in the original source medium : 4358 (0x1106)

Формат : AC-3

Формат/Информация : Audio Coding 3

Коммерческое название : Dolby Digital

Настройки формата : Dolby Surround

Идентификатор кодека : A_AC3

Продолжительность : 1 ч. 58 м.

Вид битрейта : Постоянный

Битрейт : 224 Кбит/сек

Каналы : 2 канала

Channel layout : L R

Частота : 48,0 КГц

Частота кадров : 31,250 кадров/сек (1536 SPF)

Метод сжатия : С потерями

Размер потока : 190 Мбайт (0%)

Заголовок : MVO, Licence

Язык : Russian

Service kind : Complete Main

Default : Да

Forced : Нет

Носитель оригинала : Blu-ray



Аудио #2

Идентификатор : 3

Формат : DTS XLL

Формат/Информация : Digital Theater Systems

Коммерческое название : DTS-HD Master Audio

Идентификатор кодека : A_DTS

Продолжительность : 1 ч. 58 м.

Вид битрейта : Переменный

Битрейт : 4 353 Кбит/сек

Каналы : 6 каналов

Channel layout : C L R Ls Rs LFE

Частота : 48,0 КГц

Частота кадров : 93,750 кадра/сек (512 SPF)

Битовая глубина : 24 бит

Метод сжатия : Без потерь

Размер потока : 3,60 Гбайт (6%)

Заголовок : MVO, Киномания

Язык : Russian

Default : Нет

Forced : Нет



Аудио #3

Идентификатор : 4

Формат : DTS XLL

Формат/Информация : Digital Theater Systems

Коммерческое название : DTS-HD Master Audio

Идентификатор кодека : A_DTS

Продолжительность : 1 ч. 58 м.

Вид битрейта : Переменный

Битрейт : 4 343 Кбит/сек

Каналы : 6 каналов

Channel layout : C L R Ls Rs LFE

Частота : 48,0 КГц

Частота кадров : 93,750 кадра/сек (512 SPF)

Битовая глубина : 24 бит

Метод сжатия : Без потерь

Размер потока : 3,59 Гбайт (6%)

Заголовок : DVO, Гланц и Лютая

Язык : Russian

Default : Нет

Forced : Нет



Аудио #4

Идентификатор : 5

Формат : DTS XLL

Формат/Информация : Digital Theater Systems

Коммерческое название : DTS-HD Master Audio

Идентификатор кодека : A_DTS

Продолжительность : 1 ч. 58 м.

Вид битрейта : Переменный

Битрейт : 4 354 Кбит/сек

Каналы : 6 каналов

Channel layout : C L R Ls Rs LFE

Частота : 48,0 КГц

Частота кадров : 93,750 кадра/сек (512 SPF)

Битовая глубина : 24 бит

Метод сжатия : Без потерь

Размер потока : 3,60 Гбайт (6%)

Заголовок : МVO, Карусель

Язык : Russian

Default : Нет

Forced : Нет



Аудио #5

Идентификатор : 6

Формат : AC-3

Формат/Информация : Audio Coding 3

Коммерческое название : Dolby Digital

Идентификатор кодека : A_AC3

Продолжительность : 1 ч. 58 м.

Вид битрейта : Постоянный

Битрейт : 448 Кбит/сек

Каналы : 6 каналов

Channel layout : L R C LFE Ls Rs

Частота : 48,0 КГц

Частота кадров : 31,250 кадров/сек (1536 SPF)

Метод сжатия : С потерями

Размер потока : 379 Мбайт (1%)

Заголовок : MVO, НТВ+

Язык : Russian

Service kind : Complete Main

Default : Нет

Forced : Нет



Аудио #6

Идентификатор : 7

Формат : AC-3

Формат/Информация : Audio Coding 3

Коммерческое название : Dolby Digital

Идентификатор кодека : A_AC3

Продолжительность : 1 ч. 58 м.

Вид битрейта : Постоянный

Битрейт : 192 Кбит/сек

Каналы : 2 канала

Channel layout : L R

Частота : 48,0 КГц

Частота кадров : 31,250 кадров/сек (1536 SPF)

Метод сжатия : С потерями

Размер потока : 163 Мбайт (0%)

Заголовок : MVO, Премьер-Видео

Язык : Russian

Service kind : Complete Main

Default : Нет

Forced : Нет



Аудио #7

Идентификатор : 8

Формат : AC-3

Формат/Информация : Audio Coding 3

Коммерческое название : Dolby Digital

Идентификатор кодека : A_AC3

Продолжительность : 1 ч. 58 м.

Вид битрейта : Постоянный

Битрейт : 192 Кбит/сек

Каналы : 2 канала

Channel layout : L R

Частота : 48,0 КГц

Частота кадров : 31,250 кадров/сек (1536 SPF)

Метод сжатия : С потерями

Размер потока : 163 Мбайт (0%)

Заголовок : MVO, R5

Язык : Russian

Service kind : Complete Main

Default : Нет

Forced : Нет



Аудио #8

Идентификатор : 9

Формат : AC-3

Формат/Информация : Audio Coding 3

Коммерческое название : Dolby Digital

Идентификатор кодека : A_AC3

Продолжительность : 1 ч. 58 м.

Вид битрейта : Постоянный

Битрейт : 192 Кбит/сек

Каналы : 2 канала

Channel layout : L R

Частота : 48,0 КГц

Частота кадров : 31,250 кадров/сек (1536 SPF)

Метод сжатия : С потерями

Размер потока : 163 Мбайт (0%)

Заголовок : Dub, ICTV

Язык : Ukrainian

Service kind : Complete Main

Default : Нет

Forced : Нет



Аудио #9

Идентификатор : 10

ID in the original source medium : 4352 (0x1100)

Формат : MLP FBA 16-ch

Формат/Информация : Meridian Lossless Packing FBA with 16-channel presentation

Коммерческое название : Dolby TrueHD with Dolby Atmos

Идентификатор кодека : A_TRUEHD

Продолжительность : 1 ч. 58 м.

Вид битрейта : Переменный

Битрейт : 4 320 Кбит/сек

Максимальный битрейт : 6 240 Кбит/сек

Каналы : 8 каналов

Channel layout : L R C LFE Ls Rs Lb Rb

Частота : 48,0 КГц

Частота кадров : 1 200,000 кадров/сек (40 SPF)

Битовая глубина : 24 бит

Метод сжатия : Без потерь

Размер потока : 3,57 Гбайт (6%)

Заголовок : Original

Язык : English

Default : Нет

Forced : Нет

Носитель оригинала : Blu-ray

Number of dynamic objects : 11

Bed channel count : 1 канал

Bed channel configuration : LFE



Аудио #10

Идентификатор : 11

Формат : AC-3

Формат/Информация : Audio Coding 3

Коммерческое название : Dolby Digital

Настройки формата : Dolby Surround EX

Идентификатор кодека : A_AC3

Продолжительность : 1 ч. 58 м.

Вид битрейта : Постоянный

Битрейт : 640 Кбит/сек

Каналы : 6 каналов

Channel layout : L R C LFE Ls Rs

Частота : 48,0 КГц

Частота кадров : 31,250 кадров/сек (1536 SPF)

Метод сжатия : С потерями

Размер потока : 542 Мбайт (1%)

Заголовок : Original

Язык : English

Service kind : Complete Main

Default : Нет

Forced : Нет



Текст #1

Идентификатор : 12

Формат : UTF-8

Идентификатор кодека : S_TEXT/UTF8

Идентификатор кодека/Информация : UTF-8 Plain Text

Продолжительность : 1 ч. 57 м.

Битрейт : 39 бит/сек

Count of elements : 636

Размер потока : 34,3 Кбайт (0%)

Заголовок : Full

Язык : Russian

Default : Да

Forced : Нет



Текст #2

Идентификатор : 13

Формат : UTF-8

Идентификатор кодека : S_TEXT/UTF8

Идентификатор кодека/Информация : UTF-8 Plain Text

Продолжительность : 1 ч. 52 м.

Битрейт : 27 бит/сек

Count of elements : 867

Размер потока : 22,6 Кбайт (0%)

Заголовок : Full

Язык : English

Default : Нет

Forced : Нет



Меню

00:00:00.000 : en:Chapter 01

00:02:54.841 : en:Chapter 02

00:08:07.278 : en:Chapter 03

00:10:52.693 : en:Chapter 04

00:12:51.312 : en:Chapter 05

00:16:00.542 : en:Chapter 06

00:19:49.980 : en:Chapter 07

00:26:28.503 : en:Chapter 08

00:28:42.762 : en:Chapter 09

00:31:49.032 : en:Chapter 10

00:35:20.660 : en:Chapter 11

00:38:56.751 : en:Chapter 12

00:41:20.144 : en:Chapter 13

00:46:24.031 : en:Chapter 14

00:50:42.831 : en:Chapter 15

00:52:06.456 : en:Chapter 16

00:56:08.365 : en:Chapter 17

00:59:56.843 : en:Chapter 18

01:05:57.036 : en:Chapter 19

01:09:52.021 : en:Chapter 20

01:13:08.550 : en:Chapter 21

01:17:08.290 : en:Chapter 22

01:24:01.578 : en:Chapter 23

01:27:33.206 : en:Chapter 24

01:29:20.855 : en:Chapter 25

01:35:03.447 : en:Chapter 26

01:39:23.791 : en:Chapter 27

01:41:51.271 : en:Chapter 28

01:43:38.795 : en:Chapter 29

01:49:57.507 : en:Chapter 30

01:53:10.867 : en:Chapter 31





Скриншоты







Релиз от: Dolby Vision Torrents

Discussion

Comments 0

Post Your Comment

Files in this torrent

FILENAMESIZE
Indiana.Jones.and.the.Temple.of.Doom.1984.BDRemux.2160p.HDR.DV.by.DVT.mkv60.4 GB

Alternative Torrents for 'Indiana Jones and Temple of Doom HDR DV by DVT'.

There are no alternative torrents found.