The Handmaid's Tale S04E09 1080p WEB H264-GLHF

Torrent Details


The Handmaid's Tale S04E09 1080p WEB H264-GLHF

NAME
The Handmaid's Tale S04E09 1080p WEB H264-GLHF.torrent
CATEGORY
Television
INFOHASH
b027f86cd5ceedf6ecd1eb6f3ede92a6d2daeed6
SIZE
1.5 GB in 2 files
ADDED
Uploaded on 09-06-2021 by our crawler pet called "Spidey".
SWARM
10 seeders & 0 peers
RATING
No votes yet.

Please login to vote for this torrent.


Description

https://www.imdb.com/title/tt5834204/



General

Unique ID                                : 194432265732243562773331957670074572179 (0x92464AD26536483FF30028CC9C76DD93)

Complete name                            : The.Handmaids.Tale.S04E09.1080p.WEB.H264-GLHF/the.handmaids.tale.s04e09.1080p.web.h264-glhf.mkv

Format                                   : Matroska

Format version                           : Version 4 / Version 2

File size                                : 1.45 GiB

Duration                                 : 54 min 41 s

Overall bit rate                         : 3 800 kb/s

Writing application                      : mkvmerge v49.0.0 ('Sick Of Losing Soulmates') 64-bit

Writing library                          : libebml v1.4.0 + libmatroska v1.6.1



Video

ID                                       : 1

Format                                   : AVC

Format/Info                              : Advanced Video Codec

Format profile                           : [email protected]

Format settings, CABAC                   : Yes

Format settings, ReFrames                : 4 frames

Codec ID                                 : V_MPEG4/ISO/AVC

Duration                                 : 54 min 41 s

Bit rate                                 : 3 468 kb/s

Width                                    : 1 920 pixels

Height                                   : 1 080 pixels

Display aspect ratio                     : 16:9

Frame rate mode                          : Constant

Frame rate                               : 23.976 (24000/1001) FPS

Color space                              : YUV

Chroma subsampling                       : 4:2:0

Bit depth                                : 8 bits

Scan type                                : Progressive

Bits/(Pixel*Frame)                       : 0.070

Stream size                              : 1.32 GiB (91%)

Default                                  : Yes

Forced                                   : No



Audio

ID                                       : 2

Format                                   : E-AC-3

Format/Info                              : Enhanced Audio Coding 3

Format settings, Endianness              : Big

Codec ID                                 : A_EAC3

Duration                                 : 54 min 41 s

Bit rate mode                            : Constant

Bit rate                                 : 256 kb/s

Channel(s)                               : 6 channels

Channel positions                        : Front: L C R, Side: L R, LFE

Sampling rate                            : 48.0 kHz

Frame rate                               : 187.500 FPS (256 spf)

Compression mode                         : Lossy

Stream size                              : 100 MiB (7%)

Language                                 : English

Default                                  : Yes

Forced                                   : No



Text #1

ID                                       : 3

Format                                   : UTF-8

Codec ID                                 : S_TEXT/UTF8

Codec ID/Info                            : UTF-8 Plain Text

Title                                    : English

Language                                 : English

Default                                  : No

Forced                                   : No



Text #2

ID                                       : 4

Format                                   : UTF-8

Codec ID                                 : S_TEXT/UTF8

Codec ID/Info                            : UTF-8 Plain Text

Title                                    : Spanish

Language                                 : Spanish

Default                                  : No

Forced                                   : No

Discussion

Comments 0

Post Your Comment

Files in this torrent

FILENAMESIZE
the.handmaids.tale.s04e09.1080p.web.h264-glhf.mkv1.5 GB
the.handmaids.tale.s04e09.1080p.web.h264-glhf.nfo46 B

Alternative Torrents for 'Handmaids Tale HGLHF'.

There are no alternative torrents found.