【更多高清电影访问 】哥斯拉大战金刚[国英语音轨+中文字幕] Godzilla Vs Kong 2021 2160p HDR UHD BluRay TrueHD 7.1 Atmos 2Audio X265-10bit-HDS 17.15GB

Torrent Details

【更多高清电影访问 】哥斯拉大战金刚[国英语音轨+中文字幕] Godzilla vs Kong<span style=color:#777> 2021</span> 2160p HDR UHD BluRay TrueHD 7.1 Atmos 2Audio x265-10bit-HDS 17.15GB

NAME
【更多高清电影访问 】哥斯拉大战金刚[国英语音轨+中文字幕] Godzilla vs Kong 2021 2160p HDR UHD BluRay TrueHD 7.1 Atmos 2Audio x265-10bit-HDS 17.15GB.torrent
CATEGORY
Movies
INFOHASH
82c93c7008d9b0d425f310d5f615a71785381537
SIZE
17.2 GB in 5 files
ADDED
Uploaded on 27-06-2021 by our crawler pet called "Spidey".
SWARM
0 seeders & 1 peers
RATING
No votes yet.

Please login to vote for this torrent.


Description

@HighHDR format : SMPTE ST 2086, HDR10 compatibleCodec ID : V_MPEGH/ISO/HEVCDuration : 1 h 53 minBit rate : 12.3 Mb/sWidth : 3 840 pixelsHeight : 1 608 pixelsDisplay aspect ratio : 2.40:1Frame rate mode : ConstantFrame rate : 23.976 (24000/1001) FPSColor space : YUVChroma subsampling : 4:2:0Bit depth : 10 bitsBits/(Pixel*Frame) : 0.083Stream size : 9.75 GiB (57%)Title : @HDSkyWriting library : x265 - H.265/HEVC codecDefault : YesForced : NoColor range : LimitedColor primaries : BT.2020Transfer characteristics : PQMatrix coefficients : BT.2020 non-constantMastering display color primaries : Display P3Mastering display luminance : min: 0.0020 cd/m2, max: 1000 cd/m2Maximum Content Light Level : 739 cd/m2Maximum Frame-Average Light Level : 331 cd/m2Audio #1ID : 2Format : MLP FBA 16-chFormat/Info : Meridian Lossless Packing FBA with 16-channel presentationCommercial name : Dolby TrueHD with Dolby AtmosCodec ID : A_TRUEHDDuration : 1 h 53 minBit rate mode : VariableBit rate : 3 455 kb/sMaximum bit rate : 5 742 kb/sChannel(s) : 8 channelsChannel layout : L R C LFE Ls Rs Lb RbSampling rate : 48.0 kHzFrame rate : 1 200.000 FPS (40 SPF)Compression mode : LosslessStream size : 2.73 GiB (16%)Title : EnglishLanguage : EnglishDefault : YesForced : NoNumber of dynamic objects : 11Bed channel count : 1 channelBed channel configuration : LFEAudio #2ID : 3Format : DTS XLLFormat/Info : Digital Theater SystemsCommercial name : DTS-HD Master AudioCodec ID : A_DTSDuration : 1 h 53 minBit rate mode : VariableBit rate : 5 762 kb/sChannel(s) : 8 channelsChannel layout : C L R LFE Lb Rb Lss RssSampling rate : 48.0 kHzFrame rate : 93.750 FPS (512 SPF)Bit depth : 24 bitsCompression mode : LosslessStream size : 4.55 GiB (27%)Title : MandarinLanguage : ChineseDefault : NoForced : NoText #1ID : 4Format : PGSMuxing mode : zlibCodec ID : S_HDMV/PGSCodec ID/Info : Picture based subtitle format used on BDs/HD-DVDsDuration : 1 h 44 minBit rate : 23.1 kb/sCount of elements : 1740Stream size : 17.3 MiB (0%)Title : CHTLanguage : ChineseDefault : YesForced : NoText #2ID : 5Format : PGSMuxing mode : zlibCodec ID : S_HDMV/PGSCodec ID/Info : Picture based subtitle format used on BDs/HD-DVDsDuration : 1 h 52 minBit rate : 19.0 kb/sCount of elements : 1794Stream size : 15.2 MiB (0%)Title : CHTLanguage : ChineseDefault : NoForced : NoText #3ID : 6Format : PGSMuxing mode : zlibCodec ID : S_HDMV/PGSCodec ID/Info : Picture based subtitle format used on BDs/HD-DVDsDuration : 1 h 46 minBit rate : 22.6 kb/sCount of elements : 1746Stream size : 17.2 MiB (0%)Title : CHSLanguage : ChineseDefault : NoForced : NoText #4ID : 7Format : PGSMuxing mode : zlibCodec ID : S_HDMV/PGSCodec ID/Info : Picture based subtitle format used on BDs/HD-DVDsDuration : 1 h 46 minBit rate : 23.3 kb/sCount of elements : 1746Stream size : 17.7 MiB (0%)Title : CHTLanguage : ChineseDefault : NoForced : NoText #5ID : 8Format : PGSMuxing mode : zlibCodec ID : S_HDMV/PGSCodec ID/Info : Picture based subtitle format used on BDs/HD-DVDsDuration : 1 h 46 minBit rate : 36.4 kb/sCount of elements : 1747Stream size : 27.6 MiB (0%)Title : CHS&ENGLanguage : ChineseDefault : NoForced : NoText #6ID : 9Format : PGSMuxing mode : zlibCodec ID : S_HDMV/PGSCodec ID/Info : Picture based subtitle format used on BDs/HD-DVDsDuration : 1 h 46 minBit rate : 37.1 kb/sCount of elements : 1747Stream size : 28.1 MiB (0%)Title : CHT&ENGLanguage : ChineseDefault : NoForced : NoMenu00:00:00.000 : en:Chapter 0100:09:51.591 : en:Chapter 0200:20:07.497 : en:Chapter 0300:29:02.365 : en:Chapter 0400:38:39.733 : en:Chapter 0500:49:15.994 : en:Chapter 0600:57:17.016 : en:Chapter 0701:09:07.976 : en:Chapter 0801:18:33.875 : en:Chapter 0901:30:06.109 : en:Chapter 1001:41:58.945 : en:Chapter 11

Discussion

Comments 0

Post Your Comment

Files in this torrent

FILENAMESIZE
Godzilla.vs.Kong.2021.2160p.HDR.UHD.BluRay.TrueHD.7.1.Atmos.2Audio.x265-10bit-HDS.mkv17.2 GB
【更多电影合集访问 www.BBQDDQ.com】【注册会员后无限制下载多达15万高清资源】.PDF289.1 KB
【更多蓝光原盘访问 www.BBQDDQ.com】【注册会员后无限制下载多达15万高清资源】.MP4289.1 KB
【更多蓝光电影访问 www.BBQDDQ.com】【注册会员后无限制下载多达15万高清资源】.DOC289.1 KB
【更多高清电影访问 www.BBQDDQ.com】【注册会员后无限制下载多达15万高清资源】.MKV622 KB

Alternative Torrents for '【更多高清电影访问 】哥斯拉大战金刚国英语音轨中文字幕 Godzilla vs Kong HDR UHD TrueHD Atmos Audio bitHDS'.

There are no alternative torrents found.