Girl Fever Aka 100 Women 2002 720p WEB-DL XviD MP3-RARBG

Torrent Details


Girl Fever aka 100 Women<span style=color:#777> 2002</span> 720p WEB-DL XviD MP3<span style=color:#fc9c6d>-RARBG</span>

NAME
Girl Fever aka 100 Women 2002 720p WEB-DL XviD MP3-RARBG.torrent
CATEGORY
Movies
INFOHASH
af26144ff1598da4a770ecd1ef2e3ea0d06fc99f
SIZE
2.7 GB in 5 files
ADDED
Uploaded on 17-11-2015 by our crawler pet called "Spidey".
SWARM
0 seeders & 1 peers
RATING
No votes yet.

Please login to vote for this torrent.


Description

https://rarbg.to
Girl.Fever.aka.100.Women.2002.720p.WEB-DL.XviD.MP3-RARBG

Screens :












Mediainfo :

Video
ID : 0
Format : MPEG-4 Visual
Format profile : Simple@L5
Format settings, BVOP : No
Format settings, QPel : No
Format settings, GMC : No warppoints
Format settings, Matrix : Default (H.263)
Codec ID : XVID
Codec ID/Hint : XviD
Duration : 1h 34mn
Bit rate : 3 795 Kbps
Width : 1 280 pixels
Height : 718 pixels
Display aspect ratio : 16:9
Frame rate : 23.976 fps
Color space : YUV
Chroma subsampling : 4:2:0
Bit depth : 8 bits
Scan type : Progressive
Compression mode : Lossy
Bits/(Pixel*Frame) : 0.172
Stream size : 2.51 GiB (95%)
Writing library : Lavc56.13.100

Audio
ID : 1
Format : MPEG Audio
Format version : Version 1
Format profile : Layer 3
Mode : Joint stereo
Codec ID : 55
Codec ID/Hint : MP3
Duration : 1h 34mn
Bit rate mode : Constant
Bit rate : 192 Kbps
Channel(s) : 2 channels
Sampling rate : 48.0 KHz
Compression mode : Lossy
Stream size : 130 MiB (5%)
Alignment : Aligned on interleaves
Interleave, duration : 24 ms (0.58 video frame)
Interleave, preload duration : 504 ms
Writing library : LAME3.99.5

Discussion

Comments 0

Post Your Comment

Files in this torrent

FILENAMESIZE
English.srt112.9 KB
Girl.Fever.aka.100.Women.2002.720p.WEB-DL.XviD.MP3-RARBG.avi2.6 GB
Girl.Fever.aka.100.Women.2002.720p.WEB-DL.XviD.MP3-RARBG.nfo3 KB
RARBG.com.avi1.1 MB
RARBG.com.txt34 B

Alternative Torrents for 'Girl Fever aka Women'.

There are no alternative torrents found.