The Conjuring The Devil Made Me Do It 2021 WEB-DL 1080p SeleZen

Torrent Details


The Conjuring the Devil Made Me Do It <span style=color:#777>2021</span> WEB-DL 1080p<span style=color:#fc9c6d> seleZen</span>

NAME
The Conjuring the Devil Made Me Do It 2021 WEB-DL 1080p seleZen.torrent
CATEGORY
Movies
INFOHASH
91c8699163acc2809f981be7288e3fe0d03ffb9f
SIZE
7.7 GB in 1 file
ADDED
Uploaded on 06-07-2021 by our crawler pet called "Spidey".
SWARM
15 seeders & 2 peers
RATING
No votes yet.

Please login to vote for this torrent.


Description

Информация о фильме

Название: Заклятие 3: По воле дьявола

Оригинальное название: The Conjuring: The Devil Made Me Do It

Год выхода: 2021

Жанр: Ужасы, детектив

Режиссер: Майкл Чавес

В ролях: Вера Фармига, Патрик Уилсон, Руаири О’Коннор, Кэйси Хендершот, Митчелл Хуг, Стэйси Джонсон, Меган Эшли Браун, Линдсэй Эйлифф, Дэвис Осборн, Калека, Антонио Бенкосме, Жаклин Уайт







О фильме: Леденящая кровь история ужасов, убийства и необъяснимого зла, которая шокировала даже таких опытных исследователей паранормального, как Эд и Лоррейн Уоррены. Одно из самых сенсационных дел из их практики касается мальчика, которому приходится бороться за собственную душу. События приводят к первому в истории США случаю, когда подозреваемый в убийстве использует одержимость демоном в качестве свидетельства защиты.



Страна: США

Студия: Atomic Monster, New Line Cinema, Safran Company, The

Продолжительность: 01:51:47

Перевод(ы):

#1: Дублированный | iTunes

#2: Профессиональный многоголосый | HDRezka Studio



Качество: WEB-DL 1080p

Видео: MPEG-4 AVC, 1920x816, 8212 Kbit/s, 23.976 fps

Аудио #01: 48 kHz, AC3, 5.1, 384 Kbps | Дублированный | iTunes | RUS |

Аудио #02: 48 kHz, AC3, 5.1, 448 Kbps | Профессиональный многоголосый | HDRezka Studio | RUS |

Аудио #03: 48 kHz, E-AC3+Atmos, 5.1, 768 Kbps | Оригинал | ENG |

Субтитры: Русские (2 x Forced, 2 x full), английские







MIGeneral

Unique ID : 87283155744183695723993565209986384613 (0x41AA1FD403B32F7FF1FC8A0F9538C2E5)

Complete name : F:VideoThe.Conjuring.the.Devil.Made.Me.Do.It.2021.WEB-DL.1080p.seleZen.mkv

Format : Matroska

Format version : Version 4

File size : 7.66 GiB

Duration : 1 h 51 min

Overall bit rate mode : Variable

Overall bit rate : 9 815 kb/s

Movie name : The Conjuring the Devil Made Me Do It 2021 from seleZen

Encoded date : UTC 2021-07-05 23:46:51

Writing application : mkvmerge v55.0.0 ('Waiting For Space') 64-bit

Writing library : libebml v1.4.2 + libmatroska v1.6.4



Video

ID : 1

Format : AVC

Format/Info : Advanced Video Codec

Format profile : [email protected]

Format settings : CABAC / 4 Ref Frames

Format settings, CABAC : Yes

Format settings, Reference : 4 frames

Codec ID : V_MPEG4/ISO/AVC

Duration : 1 h 51 min

Bit rate mode : Variable

Bit rate : 8 212 kb/s

Maximum bit rate : 12.4 Mb/s

Width : 1 920 pixels

Height : 816 pixels

Display aspect ratio : 2.35:1

Frame rate mode : Constant

Frame rate : 23.976 (24000/1001) FPS

Color space : YUV

Chroma subsampling : 4:2:0

Bit depth : 8 bits

Scan type : Progressive

Bits/(Pixel*Frame) : 0.219

Stream size : 6.41 GiB (84%)

Language : English

Default : Yes

Forced : No

Color range : Limited

Color primaries : BT.709

Transfer characteristics : BT.709

Matrix coefficients : BT.709



Audio #1

ID : 2

Format : AC-3

Format/Info : Audio Coding 3

Commercial name : Dolby Digital

Codec ID : A_AC3

Duration : 1 h 51 min

Bit rate mode : Constant

Bit rate : 384 kb/s

Channel(s) : 6 channels

Channel layout : L R C LFE Ls Rs

Sampling rate : 48.0 kHz

Frame rate : 31.250 FPS (1536 SPF)

Compression mode : Lossy

Stream size : 307 MiB (4%)

Title : Dub [iTunes]

Language : Russian

Service kind : Complete Main

Default : Yes

Forced : Yes



Audio #2

ID : 3

Format : AC-3

Format/Info : Audio Coding 3

Commercial name : Dolby Digital

Codec ID : A_AC3

Duration : 1 h 51 min

Bit rate mode : Constant

Bit rate : 448 kb/s

Channel(s) : 6 channels

Channel layout : L R C LFE Ls Rs

Sampling rate : 48.0 kHz

Frame rate : 31.250 FPS (1536 SPF)

Compression mode : Lossy

Stream size : 358 MiB (5%)

Title : MVO [HDRezka Studio]

Language : Russian

Service kind : Complete Main

Default : No

Forced : No



Audio #3

ID : 4

Format : E-AC-3 JOC

Format/Info : Enhanced AC-3 with Joint Object Coding

Commercial name : Dolby Digital Plus with Dolby Atmos

Codec ID : A_EAC3

Duration : 1 h 51 min

Bit rate mode : Constant

Bit rate : 768 kb/s

Channel(s) : 6 channels

Channel layout : L R C LFE Ls Rs

Sampling rate : 48.0 kHz

Frame rate : 31.250 FPS (1536 SPF)

Compression mode : Lossy

Stream size : 614 MiB (8%)

Title : Original

Language : English

Service kind : Complete Main

Default : No

Forced : No

Complexity index : 16

Number of dynamic objects : 15

Bed channel count : 1 channel

Bed channel configuration : LFE



Text #1

ID : 5

Format : UTF-8

Codec ID : S_TEXT/UTF8

Codec ID/Info : UTF-8 Plain Text

Duration : 1 h 45 min

Bit rate : 4 b/s

Count of elements : 65

Stream size : 3.82 KiB (0%)

Title : Forced

Language : Russian

Default : Yes

Forced : Yes



Text #2

ID : 6

Format : UTF-8

Codec ID : S_TEXT/UTF8

Codec ID/Info : UTF-8 Plain Text

Duration : 1 h 45 min

Bit rate : 3 b/s

Count of elements : 49

Stream size : 2.63 KiB (0%)

Title : Forced [HDRezka Studio]

Language : Russian

Default : No

Forced : No



Text #3

ID : 7

Format : UTF-8

Codec ID : S_TEXT/UTF8

Codec ID/Info : UTF-8 Plain Text

Duration : 1 h 50 min

Bit rate : 61 b/s

Count of elements : 978

Stream size : 50.3 KiB (0%)

Title : Full

Language : Russian

Default : No

Forced : No



Text #4

ID : 8

Format : UTF-8

Codec ID : S_TEXT/UTF8

Codec ID/Info : UTF-8 Plain Text

Duration : 1 h 49 min

Bit rate : 56 b/s

Count of elements : 1010

Stream size : 45.6 KiB (0%)

Title : Full v.2

Language : Russian

Default : No

Forced : No



Text #5

ID : 9

Format : UTF-8

Codec ID : S_TEXT/UTF8

Codec ID/Info : UTF-8 Plain Text

Duration : 1 h 45 min

Bit rate : 37 b/s

Count of elements : 1021

Stream size : 29.0 KiB (0%)

Title : Full

Language : English

Default : No

Forced : No



Text #6

ID : 10

Format : UTF-8

Codec ID : S_TEXT/UTF8

Codec ID/Info : UTF-8 Plain Text

Duration : 1 h 45 min

Bit rate : 43 b/s

Count of elements : 1239

Stream size : 34.1 KiB (0%)

Title : SDH

Language : English

Default : No

Forced : No



Релиз: Присоединяйся к:



Discussion

Comments 0

Post Your Comment

Files in this torrent

FILENAMESIZE
The.Conjuring.the.Devil.Made.Me.Do.It.2021.WEB-DL.1080p.seleZen.mkv7.7 GB

Alternative Torrents for 'Conjuring Devil Made Me Do It'.

TORRENT NAMEADDEDSIZESEEDSPEERSHEALTH
6/4/20212.1 GB1419110
6/4/20211 GB60655
9/22/20212.1 GB25211
6/6/20215 GB22430
9/22/20211 GB21414
6/4/2021797 MB16513
6/4/20211.5 GB13611
1/6/20222.1 GB742
1/6/20225.2 GB273
6/25/20211.7 GB263
6/4/20217 GB232
1/10/20221.4 GB200
1/6/20226.7 GB202
6/4/20211.4 GB202
8/30/20211.5 GB187