Signed Sealed Delivered S01E17-18 Truth Be Told 720p WEB-DL DD 5.1 H264-jAh[rarbg]

Torrent Details


Signed Sealed Delivered S01E17-18 Truth Be Told 720p WEB-DL DD 5.1 h264-jAh[rarbg]

NAME
Signed Sealed Delivered S01E17-18 Truth Be Told 720p WEB-DL DD 5.1 h264-jAh[rarbg].torrent
CATEGORY
Television
INFOHASH
d76fb34f2761964ea10c2b7612a6525d494673c0
SIZE
2.5 GB in 3 files
ADDED
Uploaded on 12-12-2015 by our crawler pet called "Spidey".
SWARM
0 seeders & 0 peers
RATING
No votes yet.

Please login to vote for this torrent.


Description

https://rarbg.to
Signed.Sealed.Delivered.S01E17-18.Truth.Be.Told.720p.WEB-DL.DD5.1.h264-jAh[rartv]

Screens :


Mediainfo :

Video
ID : 1
Format : AVC
Format/Info : Advanced Video Codec
Format profile : [email protected]
Format settings, CABAC : No
Format settings, ReFrames : 2 frames
Codec ID : V_MPEG4/ISO/AVC
Duration : 1h 26mn
Bit rate : 3 767 Kbps
Width : 1 280 pixels
Height : 718 pixels
Display aspect ratio : 16:9
Frame rate mode : Constant
Frame rate : 23.976 fps
Color space : YUV
Chroma subsampling : 4:2:0
Bit depth : 8 bits
Scan type : Progressive
Bits/(Pixel*Frame) : 0.171
Stream size : 2.27 GiB (89%)
Language : English
Default : Yes
Forced : No
Color range : Limited
Color primaries : BT.709
Transfer characteristics : BT.709
Matrix coefficients : BT.709

Audio
ID : 2
Format : AC-3
Format/Info : Audio Coding 3
Mode extension : CM (complete main)
Format settings, Endianness : Big
Codec ID : A_AC3
Duration : 1h 26mn
Bit rate mode : Constant
Bit rate : 384 Kbps
Channel(s) : 6 channels
Channel positions : Front: L C R, Side: L R, LFE
Sampling rate : 48.0 KHz
Compression mode : Lossy
Stream size : 236 MiB (9%)
Language : English
Default : Yes
Forced : No

Text
ID : 3
Format : UTF-8
Codec ID : S_TEXT/UTF8
Codec ID/Info : UTF-8 Plain Text
Language : English
Default : Yes
Forced : No

Discussion

Comments 0

Post Your Comment

Files in this torrent

FILENAMESIZE
RARBG.com.txt34 B
Signed.Sealed.Delivered.S01E17-18.Truth.Be.Told.720p.WEB-DL.DD5.1.h264-jAh.mkv2.5 GB
Signed.Sealed.Delivered.S01E17-18.Truth.Be.Told.720p.WEB-DL.DD5.1.h264-jAh.srt119.3 KB

Alternative Torrents for 'Signed Sealed Delivered Truth Be Told DD hjAh'.

There are no alternative torrents found.