Extraction 2015 WEB-DL XviD AC3-RARBG

Torrent Details


Extraction 2015 WEB-DL XviD AC3-RARBG

NAME
Extraction 2015 WEB-DL XviD AC3-RARBG.torrent
CATEGORY
Movies
INFOHASH
f47a651f5ba4a42c66abfda90c7f16e39f8891e5
SIZE
1.2 GB in 4 files
ADDED
Uploaded on 27-12-2015 by our crawler pet called "Spidey".
SWARM
0 seeders & 0 peers
RATING
No votes yet.

Please login to vote for this torrent.


Description

https://rarbg.to
Extraction.2015.WEB-DL.XviD.AC3-RARBG

Screens :












Mediainfo :

Video
ID : 0
Format : MPEG-4 Visual
Format profile : [email protected]
Format settings, BVOP : No
Format settings, QPel : No
Format settings, GMC : No warppoints
Format settings, Matrix : Default (H.263)
Codec ID : XVID
Codec ID/Hint : XviD
Duration : 1h 22mn
Bit rate : 1 599 Kbps
Width : 720 pixels
Height : 304 pixels
Display aspect ratio : 2.40:1
Frame rate : 23.976 fps
Color space : YUV
Chroma subsampling : 4:2:0
Bit depth : 8 bits
Scan type : Progressive
Compression mode : Lossy
Bits/(Pixel*Frame) : 0.305
Stream size : 946 MiB (80%)
Writing library : Lavc56.13.100

Audio
ID : 1
Format : AC-3
Format/Info : Audio Coding 3
Mode extension : CM (complete main)
Format settings, Endianness : Big
Codec ID : 2000
Duration : 1h 22mn
Bit rate mode : Constant
Bit rate : 384 Kbps
Channel(s) : 6 channels
Channel positions : Front: L C R, Side: L R, LFE
Sampling rate : 48.0 KHz
Frame rate : 31.250 fps (1536 spf)
Compression mode : Lossy
Stream size : 227 MiB (19%)
Alignment : Aligned on interleaves
Interleave, duration : 42 ms (1.00 video frame)
Interleave, preload duration : 512 ms

Discussion

Comments 0

Post Your Comment

Files in this torrent

FILENAMESIZE
Extraction.2015.WEB-DL.XviD.AC3-RARBG.avi1.2 GB
Extraction.2015.WEB-DL.XviD.AC3-RARBG.nfo3.1 KB
RARBG.com.avi1.1 MB
RARBG.com.txt34 B

Alternative Torrents for 'Extraction RARBG'.

TORRENT NAMEADDEDSIZESEEDSPEERSHEALTH
5/9/20202.2 GB00
4/26/20201.8 GB00
4/24/20202.2 GB00
4/24/20204.6 GB00
4/24/20204.6 GB00
4/24/20202.8 GB00
12/27/20191.8 GB00
12/24/20191.1 GB00
11/26/20192 GB00
5/14/20191 GB00
4/27/20191.6 GB00
4/14/20196.6 GB00
4/14/20191.3 GB00
4/14/20192 GB00
2/1/20191.1 GB00