Donnie Darko 2001 DC 1080p Bluray X264-Japhson

Torrent Details


Donnie Darko 2001 DC 1080p Bluray x264-Japhson

NAME
Donnie Darko 2001 DC 1080p Bluray x264-Japhson.torrent
CATEGORY
Movies
INFOHASH
811df97fa62588baf4d76f5f06fb613e4de2660c
SIZE
10.9 GB in 3 files
ADDED
Uploaded on 30-12-2015 by our crawler pet called "Spidey".
SWARM
0 seeders & 0 peers
RATING
No votes yet.

Please login to vote for this torrent.


Description

http://q.gs/9c6dX

http://q.gs/9c6dY

http://q.gs/9c6dZ

http://q.gs/9c6da

http://q.gs/9c6db

http://q.gs/9c6dc








MediaInfo

Video
ID : 1
Format : AVC
Format/Info : Advanced Video Codec
Format profile : [email protected]
Format settings, CABAC : Yes
Format settings, ReFrames : 5 frames
Codec ID : V_MPEG4/ISO/AVC
Duration : 2h 13mn
Bit rate : 10.2 Mbps
Width : 1 920 pixels
Height : 816 pixels
Display aspect ratio : 2.35:1
Frame rate mode : Constant
Frame rate : 23.976 fps
Color space : YUV
Chroma subsampling : 4:2:0
Bit depth : 8 bits
Scan type : Progressive
Bits/(Pixel*Frame) : 0.270
Stream size : 9.28 GiB (85%)
Writing library : x264 core 66 r1109M 75b495f
Encoding settings : cabac=1 / ref=5 / deblock=1:-1:-1 / analyse=0x3:0x113 / me=umh / subme=7 / psy_rd=1.0:0.0 / mixed_ref=1 / me_range=16 / chroma_me=1 / trellis=2 / 8x8dct=1 / cqm=0 / deadzone=21,11 / chroma_qp_offset=-2 / threads=6 / nr=0 / decimate=1 / mbaff=0 / bframes=3 / b_pyramid=0 / b_adapt=2 / b_bias=0 / direct=3 / wpredb=1 / keyint=250 / keyint_min=25 / scenecut=40(pre) / rc=2pass / bitrate=10158 / ratetol=1.0 / qcomp=0.60 / qpmin=10 / qpmax=51 / qpstep=4 / cplxblur=20.0 / qblur=0.5 / vbv_maxrate=50000 / vbv_bufsize=50000 / ip_ratio=1.40 / pb_ratio=1.30 / aq=1:1.00
Language : English
Default : Yes
Forced : No

Audio
ID : 2
Format : DTS
Format/Info : Digital Theater Systems
Mode : 16
Format settings, Endianness : Big
Codec ID : A_DTS
Duration : 2h 13mn
Bit rate mode : Constant
Bit rate : 1 509 Kbps
Channel(s) : 6 channels
Channel positions : Front: L C R, Side: L R, LFE
Sampling rate : 48.0 KHz
Frame rate : 93.750 fps (512 spf)
Bit depth : 24 bits
Compression mode : Lossy
Stream size : 1.41 GiB (13%)
Language : English
Default : Yes
Forced : No




Trailer: Play trailer
Donnie.Darko.2001.DC.1080p.Bluray.x264-Japhson http://imdb.com/title/tt0246578/
Rating:
Currently 0.00/512345
Rating: 0.0/5 (0 votes cast)

Category: Movies/x264/1080
Size: 10.91 GB
Show/Hide Files:
3 files
Added: 2015-12-30 21:11:57
Title: Donnie Darko (2001)
IMDB Rating: 8.1/10 from 545773 users Updated : 2015-12-26
Rotten Rating: 7.5/10
RottenTomatoes: fresh! 85% audience liked it! 80%
Genres: Drama , Sci-Fi
Actors: Jake Gyllenhaal , Jena Malone , Mary McDonnell , Holmes Osborne , Maggie Gyllenhaal , Daveigh Chase , James Duval , Arthur Taxier , Patrick Swayze ,
Mark Hoffman , David St. James , Tom Tangen , Jazzie Mahannah , Jolene Purdy , Stuart Stone , Gary Lundy
Director: Richard Kelly
Runtime: 113
Year: 2001
Plot: Donnie Darko doesn't get along too well with his family| his teachers and his classmates; but he does manage to find a sympathetic friend in Gretchen| who agrees to
date him. He has a compassionate psychiatrist| who discovers hypnosis is the means to unlock hidden secrets. His other companion may not be a true ally. Donnie has a
friend named Frank - a large bunny which only Donnie can see. When an engine falls off a plane and destroys his bedroom| Donnie is not there. Both the event| and
Donnie's escape| seem to have been caused by supernatural events. Donnie's mental illness| if such it is| may never allow him to find out for sure.
Rotten Plot: Richard Kelly's debut feature Donnie Darko is a daring, original vision, packed with jarring ideas and intelligence and featuring a remarkable performance from Jake Gyllenhaal as the troubled title character.

Discussion

Comments 0

Post Your Comment

Files in this torrent

FILENAMESIZE
japhson-dd.mkv10.9 GB
japhson-dd.nfo3.7 KB
RARBG.com.txt34 B

Alternative Torrents for 'Donnie Darko DC Bluray Japhson'.

TORRENT NAMEADDEDSIZESEEDSPEERSHEALTH
12/30/201510.9 GB00