Harry Potter And The Deathly Hallows Part 2 2011 BRRip XviD MP3-RARBG

Torrent Details

Harry Potter And The Deathly Hallows Part 2 2011 BRRip XviD MP3-RARBG

NAME
Harry Potter And The Deathly Hallows Part 2 2011 BRRip XviD MP3-RARBG.torrent
CATEGORY
Movies
INFOHASH
90895983e91e482bac0afdfd8ccc9b9c03ee2573
SIZE
1.6 GB in 4 files
ADDED
Uploaded on 01-01-2016 by our crawler pet called "Spidey".
SWARM
0 seeders & 0 peers
RATING
No votes yet.

Please login to vote for this torrent.


Description

https://rarbg.to
Harry.Potter.And.The.Deathly.Hallows.Part.2.2011.BRRip.XviD.MP3-RARBG

Screens :










Mediainfo :

Video
ID : 0
Format : MPEG-4 Visual
Format profile : [email protected]
Format settings, BVOP : No
Format settings, QPel : No
Format settings, GMC : No warppoints
Format settings, Matrix : Default (H.263)
Codec ID : XVID
Codec ID/Hint : XviD
Duration : 2h 10mn
Bit rate : 1 498 Kbps
Width : 720 pixels
Height : 300 pixels
Display aspect ratio : 2.40:1
Frame rate : 23.976 fps
Color space : YUV
Chroma subsampling : 4:2:0
Bit depth : 8 bits
Scan type : Progressive
Compression mode : Lossy
Bits/(Pixel*Frame) : 0.289
Stream size : 1.36 GiB (88%)
Title : RARBG.COM - Harry.Potter.And.The.Deathly.Hallows.Part.2.2011.BRRip.XviD.MP3-RARBG
Writing library : Lavc56.60.100

Audio
ID : 1
Format : MPEG Audio
Format version : Version 1
Format profile : Layer 3
Mode : Joint stereo
Mode extension : MS Stereo
Codec ID : 55
Codec ID/Hint : MP3
Duration : 2h 10mn
Bit rate mode : Constant
Bit rate : 192 Kbps
Channel(s) : 2 channels
Sampling rate : 48.0 KHz
Compression mode : Lossy
Stream size : 179 MiB (11%)
Alignment : Aligned on interleaves
Interleave, duration : 24 ms (0.58 video frame)
Interleave, preload duration : 24 ms
Title : RARBG.COM - Harry.Potter.And.The.Deathly.Hallows.Part.2.2011.BRRip.XviD.MP3-RARBG
Writing library : LAME3.99

Discussion

Comments 0

Post Your Comment

Files in this torrent

FILENAMESIZE
Harry.Potter.And.The.Deathly.Hallows.Part.2.2011.BRRip.XviD.MP3-RARBG.avi1.6 GB
Harry.Potter.And.The.Deathly.Hallows.Part.2.2011.BRRip.XviD.MP3-RARBG.nfo3.2 KB
RARBG.COM.avi1.1 MB
RARBG.COM.txt34 B

Alternative Torrents for 'Harry Potter And Deathly Hallows Part'.

TORRENT NAMEADDEDSIZESEEDSPEERSHEALTH
11/9/20203.8 GB123
11/9/20204.3 GB93
11/21/20201.8 GB52
1/14/202125.1 GB42
12/29/20202.9 GB42
11/26/20201.9 GB32
1/15/202116.4 GB12
1/15/202117.6 GB11
1/14/202122.2 GB11
3/7/202116.8 GB00
3/7/202120.5 GB00
11/26/2020954 MB01
8/12/20201.4 GB00
5/30/20208.2 GB00
5/30/20206.1 GB00