Silas Marner The Weaver Of Raveloe 1985 DVDRip X264-HANDJOB[rarbg]

Torrent Details


Silas Marner The Weaver of Raveloe 1985 DVDRip x264-HANDJOB[rarbg]

NAME
Silas Marner The Weaver of Raveloe 1985 DVDRip x264-HANDJOB[rarbg].torrent
CATEGORY
Movies
INFOHASH
63fc482a13876d26800129f8c85000e008d8b16d
SIZE
1.5 GB in 3 files
ADDED
Uploaded on 03-01-2016 by our crawler pet called "Spidey".
SWARM
0 seeders & 0 peers
RATING
No votes yet.

Please login to vote for this torrent.


Description

http://j.gs/7AXi







MM: MM .M. MM MM :MMMMMMM. MMMMMM. .MMMM. MMMMMMMM
MM: MM MMM MM. MM :MM ^MMM. MM .MM^ ^MM. MM MMM
MM: MM :MMM: MMMM MM :MM .MM. MM MM: MM MM MMM
MM: MM :MM MM: MM.MM. MM :MM MM MM MM: MM MM MMM
MMMMMMMMMM MM MM MM MM. MM :MM MM. MM MM MM MMMMMMMMM.
MM: MM MMMMMMMMM MM MM.MM :MM MM MM MM. .MM MM MM
MM: MM :MM MM: MM ^MMM :MM .MMM: .MMM MMM. .MMM MM MMM
MM: MM.MM MM MM ^MM :MMMMMMM^ MMMMM^ ^MMMMMMMM^ MMMMMMMM^

.MMMMM 'MMM MM
MMM. ;MMMM. 'MMMMMMn
'M M MMMM iMM 'Mn
M M..MMMM. MM MM,
MMMMMM: MM.MM.
;M M. :MM M.
:M M: nMMM:MM
MMM. ;MMMMMM.MM ....
M. M. nMMMMM. M;MM .nMMMMn
'MMM; ;MMMMM, ;M:M: .MMMMMMM
MM Mn. nMMMMM' M MM nMM' 'MM
.MM 'MM nMMMMMM' MMMM nMM' :M'
.MM MM .MMMMM' M MM .MM' :M
MMMMMMMM' M M; MM: .M.
.MM M, .MMM .MM .M:
,MMM, M M MMM MM
MM.M MMMM MMM MMn
MMM, nM MM MMM MM
M M. .MMMMM MMM MMM
:M M .;MMMMMMM M' MMM MMM
,MMMMMMMMMMMMM M MMM. MMM
:MMM;.. MMM MMM MMM.
M M, M M MM 'MMn.
M M: MMM. MM 'MM
MMM. M;M: MM: MM
;M Mn ..M MM MM' MM:
MMMMn. .MMMMMMM;MM ;MM' MM:
MM M,:MMMMMM''' 'MMMM.mM' .MMM
.nMMMMMMMMMMMMMMMn. 'MMMn MMM:
.nMMM'''' 'MMMM; .MMMn. .MMMM.
nMMM' 'MM MM MM MMMMM.
:MMMM M 'MM MMM; ''MMMMMMMMMMMMMM
:MMMM M MM .:M MM ..MMM
MMMMMn. Mn .;MM .nMMM.Mt
''MMMMMMMMMMMMMMMMMMMMMM.MMMMMMMM; MM:
..nMMMMMMMMMMMMMMMMMMM. ''''''''MMM'
.nMMM' i8M; .M 1
.MMMM' .. MM .MMM
nMMMM M, Mi M .M
;MMMM. MY .M MMMM
MMMMMn.. ;M. [email protected] ....M, MMn
'MMMMMMMMMMMMMMMMMMMMMMMMMMMMMMMMMMMMMMMM
''''''''''MMMMMMMMMMMMMMMM. 'MM, Mt.
MMMM' . M: ':MMMMM.
.:MM' n M ':M M:
:MMM Mn MM :M M: .nMMMMMMM
:MMM. M: .nMMM..... .M,MM' nMMMMMM::'
MMMM.. .,nMMMMMMMMMMMMMMMMM. MMMM MM'
'MMMMMMMMMMMMMMMM'' .MMM;MM MM
'''''' .MM 1. 'MM. MM
.MM' :M 'M:MMMMMMMMMMMMM;'
MMMM MMMMMMMMMMMMMMMMMMMMMMMMMM'
MMMM. .1MMMMMM' """"""""
MMMMMMMMMMMMM'
""""""""'''

For Maximum Viewing Pleasure

HANDJOB brings you:

Silas.Marner.The.Weaver.of.Raveloe.1985.DVDRip.x264-HANDJOB

In 19th-century England, a misanthropic weaver named Silas Marner hoards his
gold. But his life changes when his gold is stolen, and then a baby girl
wanders into his life. He raises little Eppie, but her real father is not
far away. It's based on George Eliot's (Mary Ann Evans') third novel.

http://www.imdb.com/title/tt0090019/
IMDb user rating: 7.4 / 10
Director: Giles Foster
Writers: Peerbux Ahmad, George Eliot, Giles Foster, Louis Marks
Producer: Louis Marks
Composer: Carl Davis
Cinematographer: Nat Crosby

General
Container:Matroska
Runtime:1h 30mn
Size: 1.55 GiB
DXVA: Compatible
Minimum settings:Met

VideoCodec:x264
Resolution:704x480 > 704x528
Aspect ratio:4:3
Frame rate:23.976 fps
Bit rate:2 207 Kbps

AudioEnglish 2.0ch AC-3 @ 192 Kbps

subtitles (Muxed into mkv containr)
SRT- English

The world's your peach @TL!

[-] Hide MediaInfo

Video
ID : 1
Format : AVC
Format/Info : Advanced Video Codec
Format profile : [email protected]
Format settings, CABAC : Yes
Format settings, ReFrames : 9 frames
Codec ID : V_MPEG4/ISO/AVC
Duration : 1h 30mn
Bit rate : 2 207 Kbps
Width : 704 pixels
Height : 480 pixels
Display aspect ratio : 4:3
Original display aspect ratio : 4:3
Frame rate mode : Constant
Frame rate : 23.976 (24000/1001) fps
Color space : YUV
Chroma subsampling : 4:2:0
Bit depth : 8 bits
Scan type : Progressive
Bits/(Pixel*Frame) : 0.272
Stream size : 1.40 GiB (90%)
Writing library : x264 core 142 r2479 dd79a61
Encoding settings : cabac=1 / ref=9 / deblock=1:-3:-3 / analyse=0x3:0x133 / me=umh / subme=9 / psy=1 / psy_rd=1.00:0.00 / mixed_ref=1 / me_range=24 / chroma_me=1 / trellis=2 / 8x8dct=1 / cqm=0 / deadzone=21,11 / fast_pskip=0 / chroma_qp_offset=-2 / threads=12 / lookahead_threads=1 / sliced_threads=0 / nr=0 / decimate=1 / interlaced=0 / bluray_compat=0 / constrained_intra=0 / bframes=6 / b_pyramid=2 / b_adapt=2 / b_bias=0 / direct=3 / weightb=1 / open_gop=0 / weightp=2 / keyint=240 / keyint_min=24 / scenecut=40 / intra_refresh=0 / rc_lookahead=60 / rc=crf / mbtree=1 / crf=18.0 / qcomp=0.60 / qpmin=0 / qpmax=69 / qpstep=4 / ip_ratio=1.40 / aq=1:1.00
Default : Yes
Forced : No
Color range : Limited
Color primaries : BT.601 NTSC
Transfer characteristics : BT.709
Matrix coefficients : BT.601

Audio
ID : 2
Format : AC-3
Format/Info : Audio Coding 3
Mode extension : CM (complete main)
Format settings, Endianness : Big
Codec ID : A_AC3
Duration : 1h 30mn
Bit rate mode : Constant
Bit rate : 192 Kbps
Channel(s) : 2 channels
Channel positions : Front: L R
Sampling rate : 48.0 KHz
Frame rate : 31.250 fps (1536 spf)
Compression mode : Lossy
Stream size : 124 MiB (8%)
Language : English
Default : Yes
Forced : No

Text
ID : 3
Format : UTF-8
Codec ID : S_TEXT/UTF8
Codec ID/Info : UTF-8 Plain Text
Title : Closed Captioning
Language : English
Default : No
Forced : No

Menu
00:00:00.000 : :Chapter 1
00:04:54.544 : :Chapter 2
00:10:42.058 : :Chapter 3
00:16:11.262 : :Chapter 4
00:20:46.328 : :Chapter 5
00:25:42.624 : :Chapter 6
00:30:15.897 : :Chapter 7
00:35:43.433 : :Chapter 8
00:40:38.436 : :Chapter 9
00:45:22.553 : :Chapter 10
00:50:14.052 : :Chapter 11
00:55:56.436 : :Chapter 12
01:01:29.978 : :Chapter 13
01:05:45.775 : :Chapter 14
01:10:35.981 : :Chapter 15
01:15:34.988 : :Chapter 16
01:20:31.201 : :Chapter 17
01:28:42.734 : :Chapter 18



Silas.Marner.The.Weaver.of.Raveloe.1985.DVDRip.x264-HANDJOB http://imdb.com/title/tt0090019/
Rating:
Currently 2.00/512345
Rating: 2.0/5 (1 vote cast)

Category: Movies/x264
Size: 1.55 GB
Show/Hide Files:
3 files
Added: 2016-01-02 00:21:42
Title: Silas Marner (TV Movie 1985)
IMDB Rating: 7.4/10 from 444 users Updated : 2016-01-02
Genres: Drama
Actors: Ben Kingsley , Jenny Agutter , Patrick Ryecart , Freddie Jones , Jonathan Coy , Patsy Kensit , Elizabeth Hoyle , Melinda Whiting , Angela Pleasence ,
Rosemary Martin , Robert Putt , Jim Broadbent , Tony Caunter , Michael Bilton , Nick Brimble
Director: Giles Foster
Runtime: 92
Year: 1985
Plot: In 19th-century England| a misanthropic weaver named Silas Marner hoards his gold. But his life changes when his gold is stolen| and then a baby girl wanders into
his life. He raises little Eppie| but her real father is not far away.

Discussion

Comments 0

Post Your Comment

Files in this torrent

FILENAMESIZE
RARBG.com.txt34 B
Silas.Marner.The.Weaver.of.Raveloe.1985.DVDRip.x264-HANDJOB.mkv1.5 GB
Silas.Marner.The.Weaver.of.Raveloe.1985.DVDRip.x264-HANDJOB.nfo6 KB

Alternative Torrents for 'Silas Marner Weaver of Raveloe DVDRip HANDJOB'.

TORRENT NAMEADDEDSIZESEEDSPEERSHEALTH
1/3/20161.5 GB00