Signed Sealed Delivered-Truth Be Told 2015 HDTV X264-W4F[rarbg]

Torrent Details


Signed Sealed Delivered-Truth Be Told 2015 HDTV x264<span style=color:#fc9c6d>-W4F[rarbg]</span>

NAME
Signed Sealed Delivered-Truth Be Told 2015 HDTV x264-W4F[rarbg].torrent
CATEGORY
Television
INFOHASH
3006d7e3cd393dee54b9c9c14c1fe4f866f4ece3
SIZE
614 MB in 3 files
ADDED
Uploaded on 03-01-2016 by our crawler pet called "Spidey".
SWARM
0 seeders & 0 peers
RATING
No votes yet.

Please login to vote for this torrent.


Description

https://rarbg.to
Signed.Sealed.Delivered-Truth.Be.Told.2015.HDTV.x264-W4F[rartv]

Screens :


Mediainfo :

Video
ID : 1
Format : AVC
Format/Info : Advanced Video Codec
Format profile : [email protected]
Format settings, CABAC : Yes
Format settings, ReFrames : 5 frames
Codec ID : avc1
Codec ID/Info : Advanced Video Coding
Duration : 1h 23mn
Bit rate : 894 Kbps
Maximum bit rate : 3 686 Kbps
Width : 720 pixels
Height : 404 pixels
Display aspect ratio : 16:9
Frame rate mode : Constant
Frame rate : 23.976 (24000/1001) fps
Color space : YUV
Chroma subsampling : 4:2:0
Bit depth : 8 bits
Scan type : Progressive
Bits/(Pixel*Frame) : 0.128
Stream size : 533 MiB (87%)
Writing library : x264 core 148 r2638 7599210
Encoding settings : cabac=1 / ref=5 / deblock=1:0:0 / analyse=0x3:0x113 / me=umh / subme=8 / psy=1 / psy_rd=1.00:0.00 / mixed_ref=1 / me_range=16 / chroma_me=1 / trellis=1 / 8x8dct=1 / cqm=0 / deadzone=21,11 / fast_pskip=1 / chroma_qp_offset=-2 / threads=12 / lookahead_threads=2 / sliced_threads=0 / nr=0 / decimate=1 / interlaced=0 / bluray_compat=0 / constrained_intra=0 / bframes=3 / b_pyramid=2 / b_adapt=2 / b_bias=0 / direct=3 / weightb=1 / open_gop=0 / weightp=2 / keyint=250 / keyint_min=25 / scenecut=40 / intra_refresh=0 / rc_lookahead=50 / rc=crf / mbtree=1 / crf=19.0 / qcomp=0.60 / qpmin=0 / qpmax=69 / qpstep=4 / ip_ratio=1.40 / aq=1:1.00
Encoded date : UTC 2016-01-02 00:48:44
Tagged date : UTC 2016-01-02 00:49:40
Color range : Limited
Matrix coefficients : BT.709

Audio
ID : 2
Format : AAC
Format/Info : Advanced Audio Codec
Format profile : LC
Codec ID : 40
Duration : 1h 23mn
Bit rate mode : Variable
Bit rate : 132 Kbps
Maximum bit rate : 164 Kbps
Channel(s) : 2 channels
Channel positions : Front: L R
Sampling rate : 48.0 KHz
Frame rate : 46.875 fps (1024 spf)
Compression mode : Lossy
Stream size : 78.1 MiB (13%)
Language : English
Encoded date : UTC 2016-01-02 00:49:30
Tagged date : UTC 2016-01-02 00:49:40

Text
ID : 3
Format : Timed Text
Codec ID : tx3g
Duration : 1h 23mn
Bit rate mode : Variable
Bit rate : 114 bps
Stream size : 69.6 KiB (0%)
Language : English
Forced : No
Encoded date : UTC 2016-01-02 00:49:40
Tagged date : UTC 2016-01-02 00:49:40

Discussion

Comments 0

Post Your Comment

Files in this torrent

FILENAMESIZE
RARBG.com.txt34 B
signed.sealed.delivered-truth.be.told.2015.hdtv.x264-w4f.mp4613.6 MB
signed.sealed.delivered-truth.be.told.2015.hdtv.x264-w4f.nfo6.3 KB

Alternative Torrents for 'Signed Sealed DeliveredTruth Be Told'.

There are no alternative torrents found.