The New Daughter 2009 720p BluRay REPACK H264 AAC-RARBG

Torrent Details


The New Daughter 2009 720p BluRay REPACK H264 AAC-RARBG

NAME
The New Daughter 2009 720p BluRay REPACK H264 AAC-RARBG.torrent
CATEGORY
Movies
INFOHASH
38f67ebc5b1031fc4f3b6600440d83a0897d49e3
SIZE
1.3 GB in 4 files
ADDED
Uploaded on 11-01-2016 by our crawler pet called "Spidey".
SWARM
0 seeders & 0 peers
RATING
No votes yet.

Please login to vote for this torrent.


Description

https://rarbg.to
The.New.Daughter.2009.720p.BluRay.REPACK.H264.AAC-RARBG




Screens :













Mediainfo :

Video
ID : 1
Format : AVC
Format/Info : Advanced Video Codec
Format profile : [email protected]
Format settings, CABAC : Yes
Format settings, ReFrames : 4 frames
Codec ID : avc1
Codec ID/Info : Advanced Video Coding
Duration : 1h 47mn
Bit rate : 1 500 Kbps
Width : 1 280 pixels
Height : 544 pixels
Display aspect ratio : 2.35:1
Frame rate mode : Constant
Frame rate : 23.976 (23976/1000) fps
Color space : YUV
Chroma subsampling : 4:2:0
Bit depth : 8 bits
Scan type : Progressive
Bits/(Pixel*Frame) : 0.090
Stream size : 1.13 GiB (87%)
Writing library : x264 core 148 r2597M e86f3a1
Encoding settings : cabac=1 / ref=4 / deblock=1:-1:-1 / analyse=0x3:0x113 / me=umh / subme=9 / psy=1 / psy_rd=1.00:0.15 / mixed_ref=1 / me_range=24 / chroma_me=1 / trellis=2 / 8x8dct=1 / cqm=0 / deadzone=21,11 / fast_pskip=1 / chroma_qp_offset=-3 / threads=32 / lookahead_threads=4 / sliced_threads=0 / nr=0 / decimate=1 / interlaced=0 / bluray_compat=0 / constrained_intra=0 / bframes=3 / b_pyramid=2 / b_adapt=2 / b_bias=0 / direct=3 / weightb=1 / open_gop=0 / weightp=2 / keyint=250 / keyint_min=25 / scenecut=40 / intra_refresh=0 / rc_lookahead=50 / rc=2pass / mbtree=1 / bitrate=1500 / ratetol=1.0 / qcomp=0.60 / qpmin=0 / qpmax=69 / qpstep=4 / cplxblur=20.0 / qblur=0.5 / vbv_maxrate=31250 / vbv_bufsize=31250 / nal_hrd=none / filler=0 / ip_ratio=1.40 / aq=3:1.00
Encoded date : UTC 2016-01-11 07:49:57
Tagged date : UTC 2016-01-11 07:49:57

Audio
ID : 2
Format : AAC
Format/Info : Advanced Audio Codec
Format profile : LC
Codec ID : 40
Duration : 1h 47mn
Duration_LastFrame : 32ms
Bit rate mode : Constant
Bit rate : 224 Kbps
Channel(s) : 2 channels
Channel(s)_Original : 6 channels
Channel positions : Front: L C R, Side: L R, LFE
Sampling rate : 48.0 KHz
Frame rate : 46.875 fps (1024 spf)
Compression mode : Lossy
Stream size : 173 MiB (13%)
Default : Yes
Alternate group : 1
Encoded date : UTC 2016-01-11 07:49:57
Tagged date : UTC 2016-01-11 07:49:57

Discussion

Comments 0

Post Your Comment

Files in this torrent

FILENAMESIZE
RARBG.COM.mp4992.9 KB
RARBG.COM.txt34 B
The.New.Daughter.2009.720p.BluRay.REPACK.H264.AAC-RARBG.mp41.3 GB
The.New.Daughter.2009.720p.BluRay.REPACK.H264.AAC-RARBG.nfo4 KB

Alternative Torrents for 'Daughter BluRay REPACK AACRARBG'.

TORRENT NAMEADDEDSIZESEEDSPEERSHEALTH
6/27/2020833 MB1647379
6/27/20201.7 GB1439251
7/3/20202.3 GB959179
3/10/20182.4 GB812107
7/2/20201.1 GB768132
7/2/2020797 MB623149
6/25/2020898 MB44871
Yesterday45.5 GB4312165
7/4/20205 GB418116
7/4/2020851 MB39772
7/4/20201.7 GB384109
7/2/2020859 MB369100
6/23/20202.4 GB348115
7/4/2020666 MB329179
7/2/2020821 MB32355