Hegre-Art 16 01 12 Erotic Flexi Massage XXX 1080p MP4-KTR[rarbg]

Torrent Details


Hegre-Art 16 01 12 Erotic Flexi Massage XXX 1080p MP4<span style=color:#fc9c6d>-KTR[rarbg]</span>

NAME
Hegre-Art 16 01 12 Erotic Flexi Massage XXX 1080p MP4-KTR[rarbg].torrent
CATEGORY
Adult
INFOHASH
efe5ceb07e24f9d9b71e1c47c955a455beb93fd2
SIZE
708 MB in 3 files
ADDED
Uploaded on 12-01-2016 by our crawler pet called "Spidey".
SWARM
0 seeders & 0 peers
RATING
No votes yet.

Please login to vote for this torrent.


Description

http://q.gs/9el2g

http://q.gs/9el2h










Hegre-Art.16.01.12.Erotic.Flexi.Massage.XXX.1080p.MP4-KTR

Genre.......: Adult
Files.......: 15
Video.......: MP4
Date........: 2016-01-12
URL.........: http://www.hegre-art.com/

[-] Hide MediaInfo

Video
ID : 1
Format : AVC
Format/Info : Advanced Video Codec
Format profile : [email protected]
Format settings, CABAC : Yes
Format settings, ReFrames : 4 frames
Codec ID : avc1
Codec ID/Info : Advanced Video Coding
Duration : 36mn 40s
Bit rate : 2 500 Kbps
Width : 1 920 pixels
Height : 1 080 pixels
Display aspect ratio : 16:9
Frame rate mode : Constant
Frame rate : 25.000 fps
Color space : YUV
Chroma subsampling : 4:2:0
Bit depth : 8 bits
Scan type : Progressive
Bits/(Pixel*Frame) : 0.048
Stream size : 656 MiB (93%)
Writing library : x264 core 142
Encoding settings : cabac=1 / ref=4 / deblock=1:-1:-1 / analyse=0x3:0x133 / me=umh / subme=10 / psy=1 / psy_rd=1.00:0.15 / mixed_ref=1 / me_range=24 / chroma_me=1 / trellis=2 / 8x8dct=1 / cqm=0 / deadzone=21,11 / fast_pskip=1 / chroma_qp_offset=-3 / threads=8 / lookahead_threads=1 / sliced_threads=0 / nr=0 / decimate=1 / interlaced=0 / bluray_compat=0 / constrained_intra=0 / bframes=8 / b_pyramid=2 / b_adapt=2 / b_bias=0 / direct=3 / weightb=1 / open_gop=0 / weightp=2 / keyint=250 / keyint_min=25 / scenecut=40 / intra_refresh=0 / rc_lookahead=60 / rc=2pass / mbtree=1 / bitrate=2500 / ratetol=1.0 / qcomp=0.60 / qpmin=0 / qpmax=69 / qpstep=4 / cplxblur=20.0 / qblur=0.5 / ip_ratio=1.40 / aq=1:1.00
Language : English
Encoded date : UTC 1904-01-01 00:00:00
Tagged date : UTC 1904-01-01 00:00:00

Audio
ID : 2
Format : AAC
Format/Info : Advanced Audio Codec
Format profile : LC
Codec ID : 40
Duration : 36mn 40s
Duration_LastFrame : 43ms
Bit rate mode : Constant
Bit rate : 192 Kbps
Channel(s) : 2 channels
Channel positions : Front: L R
Sampling rate : 48.0 KHz
Frame rate : 46.875 fps (1024 spf)
Compression mode : Lossy
Stream size : 50.4 MiB (7%)
Language : English
Default : Yes
Alternate group : 1
Encoded date : UTC 1904-01-01 00:00:00
Tagged date : UTC 1904-01-01 00:00:00

Discussion

Comments 0

Post Your Comment

Files in this torrent

FILENAMESIZE
hart.16.01.12.erotic.flexi.massage.mp4707.7 MB
hart.16.01.12.erotic.flexi.massage.nfo5.1 KB
RARBG.com.txt34 B

Alternative Torrents for 'HegreArt Erotic Flexi Massage XXX'.

There are no alternative torrents found.