Sherlock S03 Season 3 & The Abominable Bride 1080p 5 1Ch BluRay ReEnc-DeeJayAhmed

Torrent Details

Sherlock S03 Season 3 & The Abominable Bride 1080p 5 1Ch BluRay ReEnc-DeeJayAhmedSherlock S03 Season 3 & The Abominable Bride 1080p 5 1Ch BluRay ReEnc-DeeJayAhmed

NAME
Sherlock S03 Season 3 & The Abominable Bride 1080p 5 1Ch BluRay ReEnc-DeeJayAhmed.torrent
CATEGORY
Television
INFOHASH
beb1afa3c2319823997caa6f94b5874923b879b7
SIZE
4.5 GB in 10 files
ADDED
Uploaded on 13-01-2016 by our crawler pet called "Spidey".
SWARM
0 seeders & 0 peers
RATING
No votes yet.

Please login to vote for this torrent.


Description


DeeJayAhmed
https://www.DeeJayAhmed.com
https://www.facebook.com/DeeJayAhmedTorrents

Keep Seeding!!=))
Do Comment On The A/V Quality Considering The Size Of The File..!

Video
ID : 1
Format : AVC
Format/Info : Advanced Video Codec
Format profile : [email protected]
Format settings, CABAC : Yes
Format settings, ReFrames : 4 frames
Codec ID : V_MPEG4/ISO/AVC
Duration : 1h 33mn
Bit rate : 1 576 Kbps
Width : 1 920 pixels
Height : 1 040 pixels
Display aspect ratio : 1.85:1
Frame rate mode : Constant
Frame rate : 24.000 fps
Color space : YUV
Chroma subsampling : 4:2:0
Bit depth : 8 bits
Scan type : Progressive
Bits/(Pixel*Frame) : 0.033
Stream size : 1.02 GiB (86%)
Default : Yes
Forced : No

Audio
ID : 2
Format : AAC
Format/Info : Advanced Audio Codec
Format profile : HE-AAC / LC
Codec ID : A_AAC
Duration : 1h 33mn
Bit rate : 249 Kbps
Channel(s) : 6 channels
Channel positions : Front: L C R, Side: L R, LFE
Sampling rate : 48.0 KHz / 24.0 KHz
Frame rate : 23.438 fps (1024 spf)
Compression mode : Lossy
Delay relative to video : 31ms
Stream size : 166 MiB (14%)
Default : Yes
Forced : No

Discussion

Comments 0

Post Your Comment

Files in this torrent

FILENAMESIZE
DeeJayAhmed ReEncodes.txt809 B
Facebook Page & Website.txt73 B
Sherlock.S03E01.1080p.5.1Ch.BluRay.ReEnc-DeeJayAhmed.mkv1.1 GB
Sherlock.S03E01.1080p.5.1Ch.BluRay.ReEnc-DeeJayAhmed.srt94.4 KB
Sherlock.S03E02.1080p.5.1Ch.BluRay.ReEnc-DeeJayAhmed.mkv1.1 GB
Sherlock.S03E02.1080p.5.1Ch.BluRay.ReEnc-DeeJayAhmed.srt116.6 KB
Sherlock.S03E03.1080p.5.1Ch.BluRay.ReEnc-DeeJayAhmed.mkv1.1 GB
Sherlock.S03E03.1080p.5.1Ch.BluRay.ReEnc-DeeJayAhmed.srt113.9 KB
Sherlock.The.Abominable.Bride.2016.1080p.5.1Ch.BluRay.ReEnc-DeeJayAhmed.mkv1.2 GB
Sherlock.The.Abominable.Bride.2016.1080p.5.1Ch.BluRay.ReEnc-DeeJayAhmed.srt121.7 KB

Alternative Torrents for 'Sherlock Season Abominable Bride BluRay ReEncDeeJayAhmed'.

There are no alternative torrents found.