The Shannara Chronicles S01E05 WEB-DL X264-RARBG

Torrent Details


The Shannara Chronicles S01E05 WEB-DL x264-RARBG

NAME
The Shannara Chronicles S01E05 WEB-DL x264-RARBG.torrent
CATEGORY
Television
INFOHASH
a0b6f2a91f8f348fcdae0fca5e5e9bb513072918
SIZE
410 MB in 4 files
ADDED
Uploaded on 27-01-2016 by our crawler pet called "Spidey".
SWARM
0 seeders & 0 peers
RATING
No votes yet.

Please login to vote for this torrent.


Description

https://rarbg.to
The.Shannara.Chronicles.S01E05.WEB-DL.x264-RARBG

Screens :








Mediainfo :

Video
ID : 1
Format : AVC
Format/Info : Advanced Video Codec
Format profile : [email protected]
Format settings, CABAC : Yes
Format settings, ReFrames : 5 frames
Codec ID : avc1
Codec ID/Info : Advanced Video Coding
Duration : 41mn 58s
Bit rate : 1 228 Kbps
Width : 720 pixels
Height : 400 pixels
Display aspect ratio : 16:9
Original display aspect ratio : 16:9
Frame rate mode : Constant
Frame rate : 23.976 (24000/1001) fps
Color space : YUV
Chroma subsampling : 4:2:0
Bit depth : 8 bits
Scan type : Progressive
Bits/(Pixel*Frame) : 0.178
Stream size : 369 MiB (90%)
Title : RARBG.COM - The.Shannara.Chronicles.S01E05.WEB-DL.x264-RARBG
Writing library : x264 core 148 r2597M e86f3a1
Encoding settings : cabac=1 / ref=5 / deblock=1:-1:-1 / analyse=0x3:0x113 / me=umh / subme=9 / psy=1 / psy_rd=1.00:0.15 / mixed_ref=1 / me_range=16 / chroma_me=1 / trellis=2 / 8x8dct=1 / cqm=0 / deadzone=21,11 / fast_pskip=1 / chroma_qp_offset=-3 / threads=12 / lookahead_threads=1 / sliced_threads=0 / nr=0 / decimate=1 / interlaced=0 / bluray_compat=0 / constrained_intra=0 / bframes=3 / b_pyramid=2 / b_adapt=2 / b_bias=0 / direct=3 / weightb=1 / open_gop=0 / weightp=2 / keyint=250 / keyint_min=23 / scenecut=40 / intra_refresh=0 / rc_lookahead=50 / rc=crf / mbtree=1 / crf=19.0 / qcomp=0.60 / qpmin=0 / qpmax=69 / qpstep=4 / ip_ratio=1.40 / aq=1:1.00
Language : English
Encoded date : UTC 2016-01-27 12:53:05
Tagged date : UTC 2016-01-27 12:53:05

Audio
ID : 2
Format : AAC
Format/Info : Advanced Audio Codec
Format profile : LC
Codec ID : 40
Duration : 41mn 59s
Bit rate mode : Constant
Bit rate : 128 Kbps
Channel(s) : 2 channels
Channel positions : Front: L R
Sampling rate : 48.0 KHz
Frame rate : 46.875 fps (1024 spf)
Compression mode : Lossy
Stream size : 38.4 MiB (9%)
Title : RARBG.COM - The.Shannara.Chronicles.S01E05.WEB-DL.x264-RARBG
Language : English
Default : Yes
Alternate group : 1
Encoded date : UTC 2016-01-27 12:53:05
Tagged date : UTC 2016-01-27 12:53:05

Discussion

Comments 0

Post Your Comment

Files in this torrent

FILENAMESIZE
RARBG.COM.mp4992.9 KB
RARBG.COM.txt34 B
The.Shannara.Chronicles.S01E05.WEB-DL.x264-RARBG.mp4409.3 MB
The.Shannara.Chronicles.S01E05.WEB-DL.x264-RARBG.nfo3.9 KB

Alternative Torrents for 'Shannara Chronicles'.

TORRENT NAMEADDEDSIZESEEDSPEERSHEALTH
1/7/202142.7 GB69
9/10/20205.5 GB10
8/9/202034.5 GB12
11/8/2020325 MB00
9/13/20201.1 GB00
9/10/2020950 MB01
9/10/20202.4 GB00
9/10/20203.1 GB00
9/10/20201.5 GB00
9/8/2020785 MB00
9/8/20203.2 GB00
9/8/20205.8 GB00
9/8/20201.8 GB00
8/17/202024.3 GB01
8/17/202033.5 GB02