The Shannara Chronicles S01E05 REPACK 720p HDTV X264-KILLERS[rarbg]

Torrent Details


The Shannara Chronicles S01E05 REPACK 720p HDTV x264<span style=color:#fc9c6d>-KILLERS[rarbg]</span>

NAME
The Shannara Chronicles S01E05 REPACK 720p HDTV x264-KILLERS[rarbg].torrent
CATEGORY
Television
INFOHASH
46a0eabd7a2a61781616c06113e2ca68ddb682d2
SIZE
1.3 GB in 3 files
ADDED
Uploaded on 29-01-2016 by our crawler pet called "Spidey".
SWARM
0 seeders & 0 peers
RATING
No votes yet.

Please login to vote for this torrent.


Description

https://rarbg.to
The.Shannara.Chronicles.S01E05.REPACK.720p.HDTV.x264-KILLERS[rartv]

Screens :


Mediainfo :

Video
ID : 1
Format : AVC
Format/Info : Advanced Video Codec
Format profile : [email protected]
Format settings, CABAC : Yes
Format settings, ReFrames : 5 frames
Codec ID : V_MPEG4/ISO/AVC
Duration : 41mn 36s
Bit rate : 4 309 Kbps
Width : 1 280 pixels
Height : 720 pixels
Display aspect ratio : 16:9
Frame rate mode : Constant
Frame rate : 23.976 (24000/1001) fps
Color space : YUV
Chroma subsampling : 4:2:0
Bit depth : 8 bits
Scan type : Progressive
Bits/(Pixel*Frame) : 0.195
Stream size : 1.25 GiB (94%)
Writing library : x264 core 148 r2665 a01e339
Encoding settings : cabac=1 / ref=5 / deblock=1:0:0 / analyse=0x3:0x113 / me=umh / subme=8 / psy=1 / psy_rd=1.00:0.00 / mixed_ref=1 / me_range=16 / chroma_me=1 / trellis=1 / 8x8dct=1 / cqm=0 / deadzone=21,11 / fast_pskip=1 / chroma_qp_offset=-2 / threads=22 / lookahead_threads=3 / sliced_threads=0 / nr=0 / decimate=1 / interlaced=0 / bluray_compat=0 / constrained_intra=0 / bframes=3 / b_pyramid=2 / b_adapt=2 / b_bias=0 / direct=3 / weightb=1 / open_gop=0 / weightp=2 / keyint=250 / keyint_min=23 / scenecut=40 / intra_refresh=0 / rc_lookahead=50 / rc=crf / mbtree=1 / crf=18.0 / qcomp=0.60 / qpmin=0 / qpmax=69 / qpstep=4 / ip_ratio=1.40 / aq=1:1.00
Language : English
Default : Yes
Forced : No
Color range : Limited
Matrix coefficients : BT.709

Audio
ID : 2
Format : AC-3
Format/Info : Audio Coding 3
Mode extension : CM (complete main)
Format settings, Endianness : Big
Codec ID : A_AC3
Duration : 41mn 36s
Bit rate mode : Constant
Bit rate : 192 Kbps
Channel(s) : 2 channels
Channel positions : Front: L R
Sampling rate : 48.0 KHz
Frame rate : 31.250 fps (1536 spf)
Compression mode : Lossy
Stream size : 57.1 MiB (4%)
Default : Yes
Forced : No

Discussion

Comments 0

Post Your Comment

Files in this torrent

FILENAMESIZE
RARBG.com.txt34 B
The.Shannara.Chronicles.S01E05.REPACK.720p.HDTV.x264-KILLERS.mkv1.3 GB
the.shannara.chronicles.s01e05.repack.720p.hdtv.x264-killers.nfo10.8 KB

Alternative Torrents for 'Shannara Chronicles REPACK'.

TORRENT NAMEADDEDSIZESEEDSPEERSHEALTH
2/17/2016254 MB00
2/17/2016311 MB00
2/17/20161.3 GB00
1/29/2016447 MB00
1/29/20161.3 GB00
1/13/20166.8 GB00