Ever After A Cinderella Story 1998 1080p BluRay H264 AAC-RARBG

Torrent Details


Ever After A Cinderella Story 1998 1080p BluRay H264 AAC-RARBG

NAME
Ever After A Cinderella Story 1998 1080p BluRay H264 AAC-RARBG.torrent
CATEGORY
Movies
INFOHASH
225fdac3e9e15a03bff009e8fc513907dc90f3ad
SIZE
2.3 GB in 4 files
ADDED
Uploaded on 11-02-2016 by our crawler pet called "Spidey".
SWARM
0 seeders & 0 peers
RATING
No votes yet.

Please login to vote for this torrent.


Description

https://rarbg.to
Ever.After.A.Cinderella.Story.1998.1080p.BluRay.H264.AAC-RARBG

Screens :










Mediainfo :

Video
ID : 1
Format : AVC
Format/Info : Advanced Video Codec
Format profile : [email protected]
Format settings, CABAC : Yes
Format settings, ReFrames : 4 frames
Codec ID : avc1
Codec ID/Info : Advanced Video Coding
Duration : 2h 1mn
Bit rate : 2 500 Kbps
Width : 1 920 pixels
Height : 816 pixels
Display aspect ratio : 2.35:1
Frame rate mode : Constant
Frame rate : 23.976 (23976/1000) fps
Color space : YUV
Chroma subsampling : 4:2:0
Bit depth : 8 bits
Scan type : Progressive
Bits/(Pixel*Frame) : 0.067
Stream size : 2.12 GiB (92%)
Writing library : x264 core 148 r2638M 7599210
Encoding settings : cabac=1 / ref=4 / deblock=1:-1:-1 / analyse=0x3:0x113 / me=umh / subme=9 / psy=1 / psy_rd=1.00:0.15 / mixed_ref=1 / me_range=24 / chroma_me=1 / trellis=2 / 8x8dct=1 / cqm=0 / deadzone=21,11 / fast_pskip=1 / chroma_qp_offset=-3 / threads=32 / lookahead_threads=4 / sliced_threads=0 / nr=0 / decimate=1 / interlaced=0 / bluray_compat=0 / constrained_intra=0 / bframes=3 / b_pyramid=2 / b_adapt=2 / b_bias=0 / direct=3 / weightb=1 / open_gop=0 / weightp=2 / keyint=250 / keyint_min=25 / scenecut=40 / intra_refresh=0 / rc_lookahead=50 / rc=2pass / mbtree=1 / bitrate=2500 / ratetol=1.0 / qcomp=0.60 / qpmin=0 / qpmax=69 / qpstep=4 / cplxblur=20.0 / qblur=0.5 / vbv_maxrate=31250 / vbv_bufsize=31250 / nal_hrd=none / filler=0 / ip_ratio=1.40 / aq=3:1.00
Encoded date : UTC 2016-02-11 16:13:26
Tagged date : UTC 2016-02-11 16:13:26

Audio
ID : 2
Format : AAC
Format/Info : Advanced Audio Codec
Format profile : LC
Codec ID : 40
Duration : 2h 1mn
Bit rate mode : Constant
Bit rate : 224 Kbps
Channel(s) : 2 channels
Channel(s)_Original : 6 channels
Channel positions : Front: L C R, Side: L R, LFE
Sampling rate : 48.0 KHz
Frame rate : 46.875 fps (1024 spf)
Compression mode : Lossy
Stream size : 194 MiB (8%)
Default : Yes
Alternate group : 1
Encoded date : UTC 2016-02-11 16:13:26
Tagged date : UTC 2016-02-11 16:13:26

Discussion

Comments 0

Post Your Comment

Files in this torrent

FILENAMESIZE
Ever.After.A.Cinderella.Story.1998.1080p.BluRay.H264.AAC-RARBG.mp42.3 GB
Ever.After.A.Cinderella.Story.1998.1080p.BluRay.H264.AAC-RARBG.nfo3.9 KB
RARBG.COM.mp4992.9 KB
RARBG.COM.txt34 B

Alternative Torrents for 'Ever After Cinderella Story BluRay AAC'.

TORRENT NAMEADDEDSIZESEEDSPEERSHEALTH
2/11/20162.3 GB00
2/9/20161.5 GB00