Elementary S04E12 720p WEB-DL DD 5.1 H264-RARBG[rarbg]

Torrent Details


Elementary S04E12 720p WEB-DL DD 5.1 H264-RARBG[rarbg]

NAME
Elementary S04E12 720p WEB-DL DD 5.1 H264-RARBG[rarbg].torrent
CATEGORY
Television
INFOHASH
46131b35afb4712ce708c6ae42529d55531904c8
SIZE
1.3 GB in 3 files
ADDED
Uploaded on 13-02-2016 by our crawler pet called "Spidey".
SWARM
0 seeders & 0 peers
RATING
No votes yet.

Please login to vote for this torrent.


Description

https://rarbg.to
Elementary.S04E12.720p.WEB-DL.DD5.1.H264-RARBG

Screens :


Mediainfo :

Video
ID : 1
Format : AVC
Format/Info : Advanced Video Codec
Format profile : [email protected]
Format settings, CABAC : No
Format settings, ReFrames : 2 frames
Codec ID : V_MPEG4/ISO/AVC
Duration : 42mn 21s
Bit rate : 3 874 Kbps
Width : 1 280 pixels
Height : 720 pixels
Display aspect ratio : 16:9
Frame rate mode : Constant
Frame rate : 23.976 (24000/1001) fps
Color space : YUV
Chroma subsampling : 4:2:0
Bit depth : 8 bits
Scan type : Progressive
Bits/(Pixel*Frame) : 0.175
Stream size : 1.15 GiB (89%)
Title : Elementary.S04E12.720p.WEB-DL.DD5.1.H264-RARBG
Language : English
Default : Yes
Forced : No
Color range : Limited
Color primaries : BT.709
Transfer characteristics : BT.709
Matrix coefficients : BT.709

Audio
ID : 2
Format : AC-3
Format/Info : Audio Coding 3
Mode extension : CM (complete main)
Format settings, Endianness : Big
Codec ID : A_AC3
Duration : 42mn 21s
Bit rate mode : Constant
Bit rate : 384 Kbps
Channel(s) : 6 channels
Channel positions : Front: L C R, Side: L R, LFE
Sampling rate : 48.0 KHz
Frame rate : 31.250 fps (1536 spf)
Compression mode : Lossy
Stream size : 116 MiB (9%)
Title : Elementary.S04E12.720p.WEB-DL.DD5.1.H264-RARBG
Language : English
Default : Yes
Forced : No

Text
ID : 3
Format : UTF-8
Codec ID : S_TEXT/UTF8
Codec ID/Info : UTF-8 Plain Text
Default : Yes
Forced : No

Discussion

Comments 0

Post Your Comment

Files in this torrent

FILENAMESIZE
Elementary.S04E12.720p.WEB-DL.DD5.1.H264-RARBG.mkv1.3 GB
Elementary.S04E12.720p.WEB-DL.DD5.1.H264-RARBG.srt70.3 KB
RARBG.com.txt34 B

Alternative Torrents for 'Elementary DD H'.

TORRENT NAMEADDEDSIZESEEDSPEERSHEALTH
8/19/20193.1 GB00
8/19/20191.5 GB00
8/19/20191.5 GB00
8/10/20193 GB00
8/10/20191.3 GB00
8/3/20191.9 GB00
8/3/20193.1 GB00
8/3/20191.9 GB00
7/27/20192 GB00
7/27/20193.2 GB00
7/27/20192 GB00
7/20/20191.5 GB00
7/20/20191.5 GB00
7/20/20192.9 GB00
7/13/20191.2 GB00