Elementary S04E12 WEB-DL X264-RARBG

Torrent Details


Elementary S04E12 WEB-DL x264-RARBG

NAME
Elementary S04E12 WEB-DL x264-RARBG.torrent
CATEGORY
Television
INFOHASH
f63f5f94219f30e1a705be911526b03b3700e4c9
SIZE
247 MB in 5 files
ADDED
Uploaded on 13-02-2016 by our crawler pet called "Spidey".
SWARM
0 seeders & 0 peers
RATING
No votes yet.

Please login to vote for this torrent.


Description

https://rarbg.to
Elementary.S04E12.WEB-DL.x264-RARBG

Screens :








Mediainfo :

Video
ID : 1
Format : AVC
Format/Info : Advanced Video Codec
Format profile : [email protected]
Format settings, CABAC : Yes
Format settings, ReFrames : 5 frames
Codec ID : avc1
Codec ID/Info : Advanced Video Coding
Duration : 42mn 21s
Bit rate : 678 Kbps
Width : 720 pixels
Height : 400 pixels
Display aspect ratio : 16:9
Frame rate mode : Constant
Frame rate : 23.976 (24000/1001) fps
Color space : YUV
Chroma subsampling : 4:2:0
Bit depth : 8 bits
Scan type : Progressive
Bits/(Pixel*Frame) : 0.098
Stream size : 205 MiB (84%)
Title : RARBG.COM - Elementary.S04E12.WEB-DL.x264-RARBG
Writing library : x264 core 148 r2597M e86f3a1
Encoding settings : cabac=1 / ref=5 / deblock=1:-1:-1 / analyse=0x3:0x113 / me=umh / subme=9 / psy=1 / psy_rd=1.00:0.15 / mixed_ref=1 / me_range=16 / chroma_me=1 / trellis=2 / 8x8dct=1 / cqm=0 / deadzone=21,11 / fast_pskip=1 / chroma_qp_offset=-3 / threads=12 / lookahead_threads=1 / sliced_threads=0 / nr=0 / decimate=1 / interlaced=0 / bluray_compat=0 / constrained_intra=0 / bframes=3 / b_pyramid=2 / b_adapt=2 / b_bias=0 / direct=3 / weightb=1 / open_gop=0 / weightp=2 / keyint=250 / keyint_min=23 / scenecut=40 / intra_refresh=0 / rc_lookahead=50 / rc=crf / mbtree=1 / crf=19.0 / qcomp=0.60 / qpmin=0 / qpmax=69 / qpstep=4 / ip_ratio=1.40 / aq=1:1.00
Language : English
Encoded date : UTC 2016-02-13 19:49:29
Tagged date : UTC 2016-02-13 19:49:29

Audio
ID : 2
Format : AAC
Format/Info : Advanced Audio Codec
Format profile : LC
Codec ID : 40
Duration : 42mn 21s
Duration_LastFrame : -11ms
Bit rate mode : Constant
Bit rate : 128 Kbps
Channel(s) : 2 channels
Channel positions : Front: L R
Sampling rate : 48.0 KHz
Frame rate : 46.875 fps (1024 spf)
Compression mode : Lossy
Stream size : 38.8 MiB (16%)
Title : RARBG.COM - Elementary.S04E12.WEB-DL.x264-RARBG
Language : English
Default : Yes
Alternate group : 1
Encoded date : UTC 2016-02-13 19:49:29
Tagged date : UTC 2016-02-13 19:49:29

Discussion

Comments 0

Post Your Comment

Files in this torrent

FILENAMESIZE
Elementary.S04E12.WEB-DL.x264-RARBG.mp4245.9 MB
Elementary.S04E12.WEB-DL.x264-RARBG.nfo3.9 KB
RARBG.COM.mp4992.9 KB
RARBG.COM.txt34 B
Subs/Und.srt65.9 KB

Alternative Torrents for 'Elementary'.

TORRENT NAMEADDEDSIZESEEDSPEERSHEALTH
7/21/20201.1 GB491
7/30/2020107 MB70
11/6/202023 MB20
6/25/20207 MB20
11/13/20206 MB10
10/30/202078 MB10
10/23/2020129 MB10
7/1/2020135 MB10
4/21/20213 MB00
4/13/20217 MB00
3/2/202121 MB00
2/24/202110 MB00
2/5/20212.3 GB00
1/28/2021130 MB00
1/13/20218 MB00