Quiz Show 1994 1080p BluRay X264 DTS-FGT

Torrent Details


Quiz Show 1994 1080p BluRay x264 DTS<span style=color:#fc9c6d>-FGT</span>

NAME
Quiz Show 1994 1080p BluRay x264 DTS-FGT.torrent
CATEGORY
Movies
INFOHASH
87e6a1300fbe8a3e2969252cd2b756ce2b19b324
SIZE
13.5 GB in 3 files
ADDED
Uploaded on 20-02-2016 by our crawler pet called "Spidey".
SWARM
0 seeders & 0 peers
RATING
This torrent has a bad rating! This torrent has BAD rating with 0 votes.

Please login to vote for this torrent.


Description

http://q.gs/9mj9Z

http://q.gs/9mj9a

http://q.gs/9mj9b

http://q.gs/9mj9c

http://q.gs/9mj9d

http://q.gs/9mj9e








MediaInfo

Video
ID : 1
Format : AVC
Format/Info : Advanced Video Codec
Format profile : [email protected]
Format settings, CABAC : Yes
Format settings, ReFrames : 4 frames
Codec ID : V_MPEG4/ISO/AVC
Duration : 2h 12mn
Bit rate : 13.0 Mbps
Width : 1 920 pixels
Height : 1 040 pixels
Display aspect ratio : 1.85:1
Frame rate mode : Constant
Frame rate : 23.976 (24000/1001) fps
Color space : YUV
Chroma subsampling : 4:2:0
Bit depth : 8 bits
Scan type : Progressive
Bits/(Pixel*Frame) : 0.273
Stream size : 11.9 GiB (88%)
Writing library : x264 core 146 r2538 121396c
Encoding settings : cabac=1 / ref=4 / deblock=1:0:0 / analyse=0x3:0x113 / me=umh / subme=8 / psy=1 / psy_rd=1.00:0.00 / mixed_ref=1 / me_range=16 / chroma_me=1 / trellis=1 / 8x8dct=1 / cqm=0 / deadzone=21,11 / fast_pskip=1 / chroma_qp_offset=-2 / threads=6 / lookahead_threads=1 / sliced_threads=0 / nr=0 / decimate=1 / interlaced=0 / bluray_compat=0 / constrained_intra=0 / bframes=3 / b_pyramid=2 / b_adapt=2 / b_bias=0 / direct=3 / weightb=1 / open_gop=0 / weightp=2 / keyint=240 / keyint_min=23 / scenecut=40 / intra_refresh=0 / rc_lookahead=50 / rc=2pass / mbtree=1 / bitrate=13048 / ratetol=1.0 / qcomp=0.60 / qpmin=0 / qpmax=69 / qpstep=4 / cplxblur=20.0 / qblur=0.5 / vbv_maxrate=62500 / vbv_bufsize=78125 / nal_hrd=none / filler=0 / ip_ratio=1.40 / aq=1:1.00
Language : English
Default : Yes
Forced : No

Audio
ID : 2
Format : DTS
Format/Info : Digital Theater Systems
Mode : 16
Format settings, Endianness : Big
Codec ID : A_DTS
Duration : 2h 12mn
Bit rate mode : Constant
Bit rate : 1 509 Kbps
Channel(s) : 6 channels
Channel positions : Front: L C R, Side: L R, LFE
Sampling rate : 48.0 KHz
Frame rate : 93.750 fps (512 spf)
Bit depth : 24 bits
Compression mode : Lossy
Stream size : 1.40 GiB (10%)
Language : English
Default : Yes
Forced : No

Text #1
ID : 3
Format : PGS
Muxing mode : zlib
Codec ID : S_HDMV/PGS
Codec ID/Info : Picture based subtitle format used on BDs/HD-DVDs
Title : English-PGS
Language : English
Default : No
Forced : No

Text #2
ID : 4
Format : PGS
Muxing mode : zlib
Codec ID : S_HDMV/PGS
Codec ID/Info : Picture based subtitle format used on BDs/HD-DVDs
Title : French-PGS
Language : French
Default : No
Forced : No

Menu
00:00:00.000 : en:00:00:00.000
00:00:13.513 : en:00:00:13.513
00:05:07.849 : en:00:05:07.849
00:08:38.309 : en:00:08:38.309
00:13:18.881 : en:00:13:18.881
00:17:07.652 : en:00:17:07.652
00:24:21.710 : en:00:24:21.710
00:30:15.689 : en:00:30:15.689
00:36:56.047 : en:00:36:56.047
00:39:44.799 : en:00:39:44.799
00:42:35.052 : en:00:42:35.052
00:51:09.316 : en:00:51:09.316
00:55:54.768 : en:00:55:54.768
00:58:53.780 : en:00:58:53.780
01:06:27.901 : en:01:06:27.901
01:09:34.128 : en:01:09:34.128
01:13:35.620 : en:01:13:35.620
01:16:46.310 : en:01:16:46.310
01:22:49.715 : en:01:22:49.715
01:24:14.007 : en:01:24:14.007
01:33:44.702 : en:01:33:44.702
01:39:08.276 : en:01:39:08.276
01:43:25.491 : en:01:43:25.491
01:47:13.260 : en:01:47:13.260
01:51:58.378 : en:01:51:58.378
01:53:43.734 : en:01:53:43.734
01:58:06.079 : en:01:58:06.079
02:04:37.804 : en:02:04:37.804
02:05:38.489 : en:02:05:38.489
02:08:43.466 : en:02:08:43.466




Trailer: Play trailer
Quiz.Show.1994.1080p.BluRay.x264.DTS-FGT http://imdb.com/title/tt0110932/
Rating:
Currently 0.00/512345
Rating: 0.0/5 (0 votes cast)

Category: Movies/x264/1080
Size: 13.52 GB
Show/Hide Files:
3 files
Added: 2016-02-20 13:46:12
Title: Quiz Show (1994)
IMDB Rating: 7.5/10 from 52240 users Updated : 2016-02-20
Rotten Rating: 8.2/10
RottenTomatoes: fresh! 96% audience liked it! 86%
Genres: Drama , History
Actors: John Turturro , Rob Morrow , Ralph Fiennes , Paul Scofield , David Paymer , Hank Azaria , Christopher McDonald , Johann Carlo , Elizabeth Wilson ,
Allan Rich , Mira Sorvino , George Martin , Paul Guilfoyle , Griffin Dunne , Michael Mantell
Director: Robert Redford
Runtime: 133
Year: 1994
Plot: An idealistic young lawyer working for a Congressional subcommittee in the late 1950s discovers that TV quiz shows are being fixed. His investigation focuses on two
contestants on the show "Twenty-One": Herbert Stempel| a brash working-class Jew from Queens| and Charles Van Doren| the patrician scion of one of America's leading
literary families. Based on a true story.
Rotten Plot: Robert Redford refracts the sociopolitical and moral issues posed by the subject material through a purely entertaining, well-acted lens.

Discussion

Comments 0

Post Your Comment

Files in this torrent

FILENAMESIZE
Quiz.Show.1994.1080p.BluRay.x264.DTS-FGT.mkv13.5 GB
Quiz.Show.1994.1080p.BluRay.x264.DTS-FGT.nfo6.7 KB
RARBG.com.txt34 B

Alternative Torrents for 'Quiz Show BluRay DTS'.

TORRENT NAMEADDEDSIZESEEDSPEERSHEALTH
2/20/201613.5 GB00